<?xml version="1.0" standalone="no"?>
<!DOCTYPE svg PUBLIC "-//W3C//DTD SVG 1.1//EN" "http://www.w3.org/Graphics/SVG/1.1/DTD/svg11.dtd" >
<svg xmlns="http://www.w3.org/2000/svg" xmlns:xlink="http://www.w3.org/1999/xlink" version="1.1">
<metadata>
Created by FontForge 20201107 at Fri Jan  1 01:00:00 1904
 By Jimmy Wärting
</metadata>
<defs>
<font id="Times" horiz-adv-x="1024" >
  <font-face 
    font-family="Times"
    font-weight="400"
    font-stretch="normal"
    units-per-em="2048"
    panose-1="2 11 5 0 0 0 0 0 0 0"
    ascent="1638"
    descent="-410"
    x-height="922"
    cap-height="1356"
    bbox="-1061 -446 2048 2195"
    underline-thickness="50"
    underline-position="-125"
    unicode-range="U+0020-F02A"
  />
<missing-glyph horiz-adv-x="1536" 
d="M256 0v1280h1024v-1280h-1024zM1247 33v1214h-958v-1214h958z" />
    <glyph glyph-name=".notdef" horiz-adv-x="1536" 
d="M256 0v1280h1024v-1280h-1024zM1247 33v1214h-958v-1214h958z" />
    <glyph glyph-name=".null" horiz-adv-x="0" 
 />
    <glyph glyph-name="nonmarkingreturn" horiz-adv-x="0" 
 />
    <glyph glyph-name="space" unicode=" " horiz-adv-x="512" 
 />
    <glyph glyph-name="space" unicode="&#x2031;" horiz-adv-x="512" 
 />
    <glyph glyph-name="space" unicode="&#x2025;" horiz-adv-x="512" 
 />
    <glyph glyph-name="space" unicode="&#x2024;" horiz-adv-x="512" 
 />
    <glyph glyph-name="space" unicode="&#x2023;" horiz-adv-x="512" 
 />
    <glyph glyph-name="space" unicode="&#x201f;" horiz-adv-x="512" 
 />
    <glyph glyph-name="space" unicode="&#x201b;" horiz-adv-x="512" 
 />
    <glyph glyph-name="space" unicode="&#x2017;" horiz-adv-x="512" 
 />
    <glyph glyph-name="space" unicode="&#x2016;" horiz-adv-x="512" 
 />
    <glyph glyph-name="space" unicode="&#x2015;" horiz-adv-x="512" 
 />
    <glyph glyph-name="exclam" unicode="!" horiz-adv-x="682" 
d="M387 360h-27l-18 222q-5 57 -15 134t-27 200t-25.5 194.5t-8.5 101.5q0 71 24.5 121.5t82.5 50.5q110 0 110 -165q0 -48 -4 -74zM375 -18q-39 0 -74 26t-35 78q0 49 32 80t77 31q47 0 79.5 -33.5t32.5 -77.5q0 -51 -34.5 -77.5t-77.5 -26.5z" />
    <glyph glyph-name="quotedbl" unicode="&#x22;" horiz-adv-x="836" 
d="M612 883h-43q-65 364 -65 417q0 39 27 61.5t61 22.5q32 0 59 -22.5t27 -61.5q0 -40 -24.5 -185.5t-41.5 -231.5zM266 883h-43q-65 364 -65 417q0 39 27 61.5t61 22.5q32 0 59 -22.5t27 -61.5q0 -40 -24.5 -185.5t-41.5 -231.5z" />
    <glyph glyph-name="numbersign" unicode="#" 
d="M965 555v-113h-224l-63 -442h-119l64 442h-275l-67 -442h-119l67 442h-219v113h238l43 274h-225v113h241l64 414h118l-63 -414h272l62 414h119l-62 -414h199v-113h-215l-41 -274h205zM682 829h-272l-43 -274h274z" />
    <glyph glyph-name="dollar" unicode="$" 
d="M870 1024h-30q-28 151 -111 210t-188 71v-504q157 -89 234.5 -143.5t119 -124.5t41.5 -177q0 -111 -51.5 -185.5t-138 -114t-205.5 -56.5v-178h-70v178q-213 0 -381 104v267h31q23 -104 69 -174t116.5 -105t164.5 -35v578q-126 71 -196 121.5t-119.5 124t-49.5 166.5
q0 76 38.5 144.5t120 114t206.5 54.5v129h70v-129q111 -14 191 -35.5t138 -73.5v-227zM469 834v471q-128 -21 -169.5 -86.5t-41.5 -128.5q0 -74 49 -127t162 -129zM541 600v-543q50 9 101.5 30t91.5 74t40 148q0 70 -29.5 119.5t-71.5 82.5t-132 89z" />
    <glyph glyph-name="percent" unicode="%" horiz-adv-x="1706" 
d="M1358 760q87 0 155 -44t68 -181q0 -117 -52.5 -243t-147 -209t-210.5 -83q-132 0 -191.5 80t-59.5 201q0 108 63.5 220.5t165.5 185.5t209 73zM1384 694q-68 0 -125 -56t-99 -141.5t-63.5 -163.5t-21.5 -116q0 -156 131 -156q84 0 158.5 76t119 185t44.5 198
q0 76 -41 125t-103 49zM1298 1384l-788 -1411h-98l714 1274l-4 4q-46 -26 -94 -41.5t-121 -15.5q-83 0 -135 20q14 -49 14 -92q0 -81 -29 -174t-85 -174.5t-135 -131.5t-172 -50q-52 0 -108 29t-94 91t-38 158q0 104 61 218.5t163 191t216 76.5q62 0 94 -14t62 -42
q22 -18 41.5 -29t52 -18.5t82.5 -7.5q77 0 138 20.5t99 48t85 70.5h79zM408 662q77 0 154 69t125 179.5t48 222.5q0 37 -18 96q-55 14 -74.5 25t-36.5 25.5t-31 14.5q-63 0 -132 -82.5t-115.5 -199.5t-46.5 -199q0 -80 32.5 -115.5t94.5 -35.5z" />
    <glyph glyph-name="percent" unicode="&#x202f;" horiz-adv-x="1706" 
d="M1358 760q87 0 155 -44t68 -181q0 -117 -52.5 -243t-147 -209t-210.5 -83q-132 0 -191.5 80t-59.5 201q0 108 63.5 220.5t165.5 185.5t209 73zM1384 694q-68 0 -125 -56t-99 -141.5t-63.5 -163.5t-21.5 -116q0 -156 131 -156q84 0 158.5 76t119 185t44.5 198
q0 76 -41 125t-103 49zM1298 1384l-788 -1411h-98l714 1274l-4 4q-46 -26 -94 -41.5t-121 -15.5q-83 0 -135 20q14 -49 14 -92q0 -81 -29 -174t-85 -174.5t-135 -131.5t-172 -50q-52 0 -108 29t-94 91t-38 158q0 104 61 218.5t163 191t216 76.5q62 0 94 -14t62 -42
q22 -18 41.5 -29t52 -18.5t82.5 -7.5q77 0 138 20.5t99 48t85 70.5h79zM408 662q77 0 154 69t125 179.5t48 222.5q0 37 -18 96q-55 14 -74.5 25t-36.5 25.5t-31 14.5q-63 0 -132 -82.5t-115.5 -199.5t-46.5 -199q0 -80 32.5 -115.5t94.5 -35.5z" />
    <glyph glyph-name="percent" unicode="&#x202e;" horiz-adv-x="1706" 
d="M1358 760q87 0 155 -44t68 -181q0 -117 -52.5 -243t-147 -209t-210.5 -83q-132 0 -191.5 80t-59.5 201q0 108 63.5 220.5t165.5 185.5t209 73zM1384 694q-68 0 -125 -56t-99 -141.5t-63.5 -163.5t-21.5 -116q0 -156 131 -156q84 0 158.5 76t119 185t44.5 198
q0 76 -41 125t-103 49zM1298 1384l-788 -1411h-98l714 1274l-4 4q-46 -26 -94 -41.5t-121 -15.5q-83 0 -135 20q14 -49 14 -92q0 -81 -29 -174t-85 -174.5t-135 -131.5t-172 -50q-52 0 -108 29t-94 91t-38 158q0 104 61 218.5t163 191t216 76.5q62 0 94 -14t62 -42
q22 -18 41.5 -29t52 -18.5t82.5 -7.5q77 0 138 20.5t99 48t85 70.5h79zM408 662q77 0 154 69t125 179.5t48 222.5q0 37 -18 96q-55 14 -74.5 25t-36.5 25.5t-31 14.5q-63 0 -132 -82.5t-115.5 -199.5t-46.5 -199q0 -80 32.5 -115.5t94.5 -35.5z" />
    <glyph glyph-name="percent" unicode="&#x202d;" horiz-adv-x="1706" 
d="M1358 760q87 0 155 -44t68 -181q0 -117 -52.5 -243t-147 -209t-210.5 -83q-132 0 -191.5 80t-59.5 201q0 108 63.5 220.5t165.5 185.5t209 73zM1384 694q-68 0 -125 -56t-99 -141.5t-63.5 -163.5t-21.5 -116q0 -156 131 -156q84 0 158.5 76t119 185t44.5 198
q0 76 -41 125t-103 49zM1298 1384l-788 -1411h-98l714 1274l-4 4q-46 -26 -94 -41.5t-121 -15.5q-83 0 -135 20q14 -49 14 -92q0 -81 -29 -174t-85 -174.5t-135 -131.5t-172 -50q-52 0 -108 29t-94 91t-38 158q0 104 61 218.5t163 191t216 76.5q62 0 94 -14t62 -42
q22 -18 41.5 -29t52 -18.5t82.5 -7.5q77 0 138 20.5t99 48t85 70.5h79zM408 662q77 0 154 69t125 179.5t48 222.5q0 37 -18 96q-55 14 -74.5 25t-36.5 25.5t-31 14.5q-63 0 -132 -82.5t-115.5 -199.5t-46.5 -199q0 -80 32.5 -115.5t94.5 -35.5z" />
    <glyph glyph-name="percent" unicode="&#x202c;" horiz-adv-x="1706" 
d="M1358 760q87 0 155 -44t68 -181q0 -117 -52.5 -243t-147 -209t-210.5 -83q-132 0 -191.5 80t-59.5 201q0 108 63.5 220.5t165.5 185.5t209 73zM1384 694q-68 0 -125 -56t-99 -141.5t-63.5 -163.5t-21.5 -116q0 -156 131 -156q84 0 158.5 76t119 185t44.5 198
q0 76 -41 125t-103 49zM1298 1384l-788 -1411h-98l714 1274l-4 4q-46 -26 -94 -41.5t-121 -15.5q-83 0 -135 20q14 -49 14 -92q0 -81 -29 -174t-85 -174.5t-135 -131.5t-172 -50q-52 0 -108 29t-94 91t-38 158q0 104 61 218.5t163 191t216 76.5q62 0 94 -14t62 -42
q22 -18 41.5 -29t52 -18.5t82.5 -7.5q77 0 138 20.5t99 48t85 70.5h79zM408 662q77 0 154 69t125 179.5t48 222.5q0 37 -18 96q-55 14 -74.5 25t-36.5 25.5t-31 14.5q-63 0 -132 -82.5t-115.5 -199.5t-46.5 -199q0 -80 32.5 -115.5t94.5 -35.5z" />
    <glyph glyph-name="percent" unicode="&#x202b;" horiz-adv-x="1706" 
d="M1358 760q87 0 155 -44t68 -181q0 -117 -52.5 -243t-147 -209t-210.5 -83q-132 0 -191.5 80t-59.5 201q0 108 63.5 220.5t165.5 185.5t209 73zM1384 694q-68 0 -125 -56t-99 -141.5t-63.5 -163.5t-21.5 -116q0 -156 131 -156q84 0 158.5 76t119 185t44.5 198
q0 76 -41 125t-103 49zM1298 1384l-788 -1411h-98l714 1274l-4 4q-46 -26 -94 -41.5t-121 -15.5q-83 0 -135 20q14 -49 14 -92q0 -81 -29 -174t-85 -174.5t-135 -131.5t-172 -50q-52 0 -108 29t-94 91t-38 158q0 104 61 218.5t163 191t216 76.5q62 0 94 -14t62 -42
q22 -18 41.5 -29t52 -18.5t82.5 -7.5q77 0 138 20.5t99 48t85 70.5h79zM408 662q77 0 154 69t125 179.5t48 222.5q0 37 -18 96q-55 14 -74.5 25t-36.5 25.5t-31 14.5q-63 0 -132 -82.5t-115.5 -199.5t-46.5 -199q0 -80 32.5 -115.5t94.5 -35.5z" />
    <glyph glyph-name="percent" unicode="&#x202a;" horiz-adv-x="1706" 
d="M1358 760q87 0 155 -44t68 -181q0 -117 -52.5 -243t-147 -209t-210.5 -83q-132 0 -191.5 80t-59.5 201q0 108 63.5 220.5t165.5 185.5t209 73zM1384 694q-68 0 -125 -56t-99 -141.5t-63.5 -163.5t-21.5 -116q0 -156 131 -156q84 0 158.5 76t119 185t44.5 198
q0 76 -41 125t-103 49zM1298 1384l-788 -1411h-98l714 1274l-4 4q-46 -26 -94 -41.5t-121 -15.5q-83 0 -135 20q14 -49 14 -92q0 -81 -29 -174t-85 -174.5t-135 -131.5t-172 -50q-52 0 -108 29t-94 91t-38 158q0 104 61 218.5t163 191t216 76.5q62 0 94 -14t62 -42
q22 -18 41.5 -29t52 -18.5t82.5 -7.5q77 0 138 20.5t99 48t85 70.5h79zM408 662q77 0 154 69t125 179.5t48 222.5q0 37 -18 96q-55 14 -74.5 25t-36.5 25.5t-31 14.5q-63 0 -132 -82.5t-115.5 -199.5t-46.5 -199q0 -80 32.5 -115.5t94.5 -35.5z" />
    <glyph glyph-name="percent" unicode="&#x2029;" horiz-adv-x="1706" 
d="M1358 760q87 0 155 -44t68 -181q0 -117 -52.5 -243t-147 -209t-210.5 -83q-132 0 -191.5 80t-59.5 201q0 108 63.5 220.5t165.5 185.5t209 73zM1384 694q-68 0 -125 -56t-99 -141.5t-63.5 -163.5t-21.5 -116q0 -156 131 -156q84 0 158.5 76t119 185t44.5 198
q0 76 -41 125t-103 49zM1298 1384l-788 -1411h-98l714 1274l-4 4q-46 -26 -94 -41.5t-121 -15.5q-83 0 -135 20q14 -49 14 -92q0 -81 -29 -174t-85 -174.5t-135 -131.5t-172 -50q-52 0 -108 29t-94 91t-38 158q0 104 61 218.5t163 191t216 76.5q62 0 94 -14t62 -42
q22 -18 41.5 -29t52 -18.5t82.5 -7.5q77 0 138 20.5t99 48t85 70.5h79zM408 662q77 0 154 69t125 179.5t48 222.5q0 37 -18 96q-55 14 -74.5 25t-36.5 25.5t-31 14.5q-63 0 -132 -82.5t-115.5 -199.5t-46.5 -199q0 -80 32.5 -115.5t94.5 -35.5z" />
    <glyph glyph-name="percent" unicode="&#x2028;" horiz-adv-x="1706" 
d="M1358 760q87 0 155 -44t68 -181q0 -117 -52.5 -243t-147 -209t-210.5 -83q-132 0 -191.5 80t-59.5 201q0 108 63.5 220.5t165.5 185.5t209 73zM1384 694q-68 0 -125 -56t-99 -141.5t-63.5 -163.5t-21.5 -116q0 -156 131 -156q84 0 158.5 76t119 185t44.5 198
q0 76 -41 125t-103 49zM1298 1384l-788 -1411h-98l714 1274l-4 4q-46 -26 -94 -41.5t-121 -15.5q-83 0 -135 20q14 -49 14 -92q0 -81 -29 -174t-85 -174.5t-135 -131.5t-172 -50q-52 0 -108 29t-94 91t-38 158q0 104 61 218.5t163 191t216 76.5q62 0 94 -14t62 -42
q22 -18 41.5 -29t52 -18.5t82.5 -7.5q77 0 138 20.5t99 48t85 70.5h79zM408 662q77 0 154 69t125 179.5t48 222.5q0 37 -18 96q-55 14 -74.5 25t-36.5 25.5t-31 14.5q-63 0 -132 -82.5t-115.5 -199.5t-46.5 -199q0 -80 32.5 -115.5t94.5 -35.5z" />
    <glyph glyph-name="percent" unicode="&#x2027;" horiz-adv-x="1706" 
d="M1358 760q87 0 155 -44t68 -181q0 -117 -52.5 -243t-147 -209t-210.5 -83q-132 0 -191.5 80t-59.5 201q0 108 63.5 220.5t165.5 185.5t209 73zM1384 694q-68 0 -125 -56t-99 -141.5t-63.5 -163.5t-21.5 -116q0 -156 131 -156q84 0 158.5 76t119 185t44.5 198
q0 76 -41 125t-103 49zM1298 1384l-788 -1411h-98l714 1274l-4 4q-46 -26 -94 -41.5t-121 -15.5q-83 0 -135 20q14 -49 14 -92q0 -81 -29 -174t-85 -174.5t-135 -131.5t-172 -50q-52 0 -108 29t-94 91t-38 158q0 104 61 218.5t163 191t216 76.5q62 0 94 -14t62 -42
q22 -18 41.5 -29t52 -18.5t82.5 -7.5q77 0 138 20.5t99 48t85 70.5h79zM408 662q77 0 154 69t125 179.5t48 222.5q0 37 -18 96q-55 14 -74.5 25t-36.5 25.5t-31 14.5q-63 0 -132 -82.5t-115.5 -199.5t-46.5 -199q0 -80 32.5 -115.5t94.5 -35.5z" />
    <glyph glyph-name="ampersand" unicode="&#x26;" horiz-adv-x="1593" 
d="M575 1141q0 -121 82 -289q91 49 165.5 118t74.5 177q0 76 -46.5 124t-115.5 48t-114.5 -44t-45.5 -134zM1456 872v-43q-47 -6 -77.5 -15t-59.5 -33.5t-55 -71.5l-54 -95q-56 -100 -84.5 -143t-119.5 -164q31 -48 118.5 -118t184.5 -70q72 0 112 26.5t84 81.5l31 -22
q-8 -25 -42 -78.5t-103 -103.5t-164 -50q-73 0 -141.5 31t-115 70t-91.5 86q-58 -52 -113 -90t-144 -67.5t-198 -29.5q-76 0 -152.5 27t-131 99.5t-54.5 195.5q0 247 322 432l77 45q-44 126 -57.5 176.5t-13.5 114.5q0 76 37 151t108 122.5t168 47.5q75 0 139.5 -29.5
t102 -84.5t37.5 -131q0 -91 -48 -159t-108 -106t-162 -88q57 -112 124 -218t146 -203q187 240 187 370q0 53 -31.5 71t-99.5 23v43h442zM274 369q0 -118 78 -203.5t187 -85.5q130 0 288 133q-80 98 -156.5 220t-154.5 269q-103 -65 -172.5 -140t-69.5 -193z" />
    <glyph glyph-name="quotesingle" unicode="'" horiz-adv-x="369" 
d="M207 883h-43q-66 352 -66 417q0 39 27 61.5t61 22.5q32 0 59 -22.5t27 -61.5q0 -53 -65 -417z" />
    <glyph glyph-name="parenleft" unicode="(" horiz-adv-x="682" 
d="M604 1384l19 -32q-76 -60 -130.5 -115.5t-105.5 -144t-82 -221.5t-31 -320q0 -165 17.5 -312t95.5 -307.5t236 -261.5l-25 -32q-55 29 -118 83t-118.5 116.5t-95.5 121.5q-85 126 -126.5 253.5t-41.5 324.5q0 129 34 251.5t100.5 232.5t159.5 201t212 162z" />
    <glyph glyph-name="parenright" unicode=")" horiz-adv-x="682" 
d="M78 -362l-19 32q86 70 137 122t100 137.5t80.5 220.5t31.5 321q0 120 -8 224t-39.5 226t-105.5 237.5t-196 193.5l25 32q83 -43 176 -135.5t156 -185.5q84 -125 126 -253.5t42 -324.5q0 -128 -34.5 -253.5t-98.5 -231.5t-160.5 -200t-212.5 -162z" />
    <glyph glyph-name="asterisk" unicode="*" 
d="M141 784q0 56 26.5 68t135 38.5t176.5 74.5l-22 14q-46 29 -112.5 45.5t-109 27t-68.5 29.5t-26 60q0 19 17 44t51 25q31 0 53 -16t57.5 -57.5t71 -72.5t103.5 -69v27q0 68 -8 102.5t-26 91.5t-18 89q0 79 76 79q36 0 53 -26t17 -53q0 -21 -28 -111t-28 -150v-53l15 8
q45 25 81.5 61t73 76.5t60 59t47.5 18.5q26 0 50 -17t24 -56q0 -46 -19 -62t-86 -30t-115 -29t-114 -57l16 -11q66 -42 165.5 -63.5t127 -33t27.5 -64.5q0 -34 -21.5 -54t-52.5 -20q-29 0 -54 20t-64 66t-70.5 76.5t-75.5 48.5l-15 6v-14q0 -90 11.5 -137.5t29 -88.5
t17.5 -65q0 -32 -22 -59t-58 -27q-28 0 -50 21t-22 59q0 20 29 107t29 149q0 26 -2 41l-2 14q-47 -31 -65.5 -44t-33.5 -25t-25.5 -23.5l-31.5 -34.5q-46 -50 -59 -63t-27 -19t-39 -6q-35 0 -52.5 21.5t-17.5 43.5z" />
    <glyph glyph-name="asterisk" 
d="M141 784q0 56 26.5 68t135 38.5t176.5 74.5l-22 14q-46 29 -112.5 45.5t-109 27t-68.5 29.5t-26 60q0 19 17 44t51 25q31 0 53 -16t57.5 -57.5t71 -72.5t103.5 -69v27q0 68 -8 102.5t-26 91.5t-18 89q0 79 76 79q36 0 53 -26t17 -53q0 -21 -28 -111t-28 -150v-53l15 8
q45 25 81.5 61t73 76.5t60 59t47.5 18.5q26 0 50 -17t24 -56q0 -46 -19 -62t-86 -30t-115 -29t-114 -57l16 -11q66 -42 165.5 -63.5t127 -33t27.5 -64.5q0 -34 -21.5 -54t-52.5 -20q-29 0 -54 20t-64 66t-70.5 76.5t-75.5 48.5l-15 6v-14q0 -90 11.5 -137.5t29 -88.5
t17.5 -65q0 -32 -22 -59t-58 -27q-28 0 -50 21t-22 59q0 20 29 107t29 149q0 26 -2 41l-2 14q-47 -31 -65.5 -44t-33.5 -25t-25.5 -23.5l-31.5 -34.5q-46 -50 -59 -63t-27 -19t-39 -6q-35 0 -52.5 21.5t-17.5 43.5z" />
    <glyph glyph-name="plus" unicode="+" horiz-adv-x="1155" 
d="M510 586v450h135v-450h449v-135h-449v-451h-135v451h-449v135h449z" />
    <glyph glyph-name="comma" unicode="," horiz-adv-x="512" 
d="M170 -289l-18 39q60 39 98 80t53.5 78t15.5 59q0 14 -8 21.5t-20 7.5q-1 0 -19 -4q-12 -4 -30 -4q-51 0 -89 24t-38 78q0 61 36.5 90t81.5 29q57 0 111.5 -43t54.5 -154q0 -64 -41.5 -130t-98 -112.5t-89.5 -58.5z" />
    <glyph glyph-name="hyphen" unicode="-" horiz-adv-x="682" 
d="M80 526h504v-129h-504v129z" />
    <glyph glyph-name="period" unicode="." horiz-adv-x="512" 
d="M256 -23q-40 0 -76.5 29.5t-36.5 81.5q0 49 33 83t80 34t81 -34t34 -83q0 -52 -38.5 -81.5t-76.5 -29.5z" />
    <glyph glyph-name="slash" unicode="/" horiz-adv-x="569" 
d="M588 1384l-467 -1413h-139l469 1413h137z" />
    <glyph glyph-name="zero" unicode="0" 
d="M512 1331q-118 0 -177 -121.5t-74 -259.5t-15 -272q0 -653 266 -653q91 0 147.5 73t81.5 182t31 203t6 195q0 134 -15 272t-74 259.5t-177 121.5zM512 1384q172 0 276.5 -117t145.5 -278t41 -311q0 -153 -41 -313.5t-145.5 -277t-276.5 -116.5t-276.5 116.5t-145.5 277
t-41 313.5q0 150 41 311t145.5 278t276.5 117z" />
    <glyph glyph-name="one" unicode="1" 
d="M242 0v31q107 4 150.5 30.5t43.5 128.5v928q0 46 -11 71t-58 25q-19 0 -37 -5.5t-103 -39.5v29l369 186l16 -4v-1228q0 -49 17 -75.5t56.5 -36t121.5 -9.5v-31h-565z" />
    <glyph glyph-name="two" unicode="2" 
d="M973 281l-113 -281h-799v25l365 387q83 89 145 183.5t91.5 181t29.5 163.5q0 61 -25.5 129t-91 116t-176.5 48q-86 0 -142.5 -40t-88 -95t-62.5 -131l-43 10q43 214 161.5 310.5t273.5 96.5q95 0 180.5 -45t137.5 -129t52 -194q0 -141 -76 -262t-186 -238l-344 -360h490
q42 0 69.5 7.5t56.5 36.5t68 91z" />
    <glyph glyph-name="three" unicode="3" 
d="M313 676l-2 26q100 32 176 77.5t120 113t44 156.5q0 54 -25 102.5t-76.5 79.5t-123.5 31q-186 0 -303 -218l-31 9q38 125 105 199.5t143.5 103t153.5 28.5q121 0 192 -48t99 -110.5t28 -117.5q0 -83 -45.5 -153t-144.5 -134q108 -45 184 -123.5t76 -255.5
q0 -142 -74.5 -249t-204 -164.5t-289.5 -57.5q-71 0 -149 24.5t-78 92.5q0 39 25 55.5t55 16.5q32 0 62.5 -15t76 -43t80 -42.5t74.5 -14.5q89 0 151.5 45.5t92.5 116.5t30 153q0 63 -35.5 145.5t-119.5 125.5q-53 29 -103.5 37t-163.5 8z" />
    <glyph glyph-name="four" unicode="4" 
d="M967 473v-131h-209v-342h-158v342h-575v131l643 911h90v-911h209zM598 473v696h-4l-488 -696h492z" />
    <glyph glyph-name="five" unicode="5" 
d="M371 1194l-86 -174q122 -23 195.5 -42t150 -60.5t131.5 -108.5q68 -82 89 -147t21 -201q0 -134 -70 -247.5t-195 -178t-283 -64.5q-81 0 -138.5 15t-88.5 43.5t-31 64.5q0 80 81 80q44 0 79.5 -16.5t83.5 -50t73 -47t61 -13.5q70 0 136 40.5t107.5 124t41.5 200.5
q0 151 -92.5 246t-225 138t-266.5 48q-12 0 -12 26l223 486h428q36 0 55 12.5t40 40.5l18 -14l-78 -183q-4 -11 -14.5 -14.5t-32.5 -3.5h-401z" />
    <glyph glyph-name="six" unicode="6" 
d="M913 1401l5 -33q-174 -27 -304 -116t-206.5 -213t-96.5 -255q95 57 142.5 75t128.5 18t150 -28t119 -83.5t78.5 -137t28.5 -182.5q0 -94 -37.5 -203.5t-136 -190.5t-264.5 -81q-126 0 -227.5 68t-162 209t-60.5 348q0 153 62 297.5t175.5 256t268.5 178.5t337 73z
M496 782q-127 0 -195 -65q-41 -43 -41 -193q0 -245 83 -370t208 -125q65 0 116 37t79 112t28 189q0 182 -64 298.5t-214 116.5z" />
    <glyph glyph-name="seven" unicode="7" 
d="M920 1356v-33l-435 -1339h-133l406 1220h-445q-62 0 -102.5 -18t-68 -51.5t-66.5 -96.5l-35 17l88 211l33 90h758z" />
    <glyph glyph-name="eight" unicode="8" 
d="M434 639q-48 -40 -80.5 -75.5t-58 -97.5t-25.5 -147q0 -82 31 -147t90.5 -104t138.5 -39q98 0 162 61.5t64 167.5q0 57 -16.5 100t-52.5 82t-85.5 77t-167.5 122zM115 299q0 87 27.5 145t77 104t161.5 132q-106 93 -154 143t-74 107t-26 137q0 98 57 170t145.5 109.5
t180.5 37.5q86 0 154 -23.5t111.5 -62.5t68 -92t24.5 -112q0 -86 -42.5 -150.5t-95 -101.5t-136.5 -82q191 -136 254 -236.5t63 -216.5q0 -49 -17 -103.5t-62 -108t-127.5 -89t-200.5 -35.5q-120 0 -209 47t-134.5 123t-45.5 158zM279 1120q0 -101 77 -179t179 -144
q89 59 140.5 124.5t51.5 182.5q0 58 -25.5 109.5t-77 82.5t-126.5 31q-71 0 -121.5 -30t-74 -77t-23.5 -100z" />
    <glyph glyph-name="nine" unicode="9" 
d="M121 -45l-6 41q220 36 356.5 160.5t190.5 241.5t73 196l-4 4q-65 -55 -143 -84t-158 -29q-185 0 -277 127.5t-92 278.5q0 136 52.5 249t150.5 178.5t228 65.5q126 0 228 -72.5t161 -203.5t59 -297q0 -219 -98 -410t-284 -310.5t-437 -135.5zM741 727v80q0 191 -49 355.5
t-223 164.5q-119 0 -169 -104.5t-50 -253.5q0 -155 58 -275.5t204 -120.5q50 0 107 23t89.5 49t32.5 82z" />
    <glyph glyph-name="colon" unicode=":" horiz-adv-x="569" 
d="M279 713q-40 0 -76.5 29.5t-36.5 80.5q0 48 33.5 82.5t79.5 34.5q47 0 80.5 -34.5t33.5 -82.5q0 -51 -37.5 -80.5t-76.5 -29.5zM279 -23q-40 0 -76.5 29.5t-36.5 81.5q0 48 33.5 82.5t79.5 34.5q47 0 80.5 -34.5t33.5 -82.5q0 -52 -37.5 -81.5t-76.5 -29.5z" />
    <glyph glyph-name="semicolon" unicode=";" horiz-adv-x="569" 
d="M219 -289l-18 39q89 56 128.5 116.5t39.5 100.5q0 13 -8.5 21t-20.5 8q-2 0 -18 -4q-14 -4 -31 -4q-127 0 -127 102q0 71 40.5 95t80.5 24q30 0 67.5 -15.5t67 -59t29.5 -122.5q0 -95 -80.5 -185t-149.5 -116zM279 713q-40 0 -76.5 29.5t-36.5 80.5q0 48 33.5 82.5
t79.5 34.5q47 0 80.5 -34.5t33.5 -82.5q0 -51 -37.5 -80.5t-76.5 -29.5z" />
    <glyph glyph-name="less" unicode="&#x3c;" horiz-adv-x="1155" 
d="M1098 123v-139l-1041 471v127l1041 471v-140l-871 -395z" />
    <glyph glyph-name="equal" unicode="=" horiz-adv-x="1155" 
d="M1094 791v-136h-1033v136h1033zM1094 381v-135h-1033v135h1033z" />
    <glyph glyph-name="greater" unicode="&#x3e;" horiz-adv-x="1155" 
d="M57 123l871 395l-871 395v140l1041 -471v-127l-1041 -471v139z" />
    <glyph glyph-name="question" unicode="?" horiz-adv-x="909" 
d="M500 336h-35q0 80 22.5 167t38.5 124l58 131q27 59 51 150.5t24 154.5q0 104 -57.5 182t-167.5 78q-44 0 -88 -17t-73 -45.5t-29 -62.5q0 -16 13 -35t29 -37.5t26 -38t10 -43.5q0 -31 -19.5 -57t-60.5 -26q-103 0 -103 129q0 97 51.5 163.5t130 98.5t152.5 32
q53 0 115.5 -17t113 -45.5t72.5 -55.5q41 -50 57.5 -97.5t16.5 -124.5q0 -49 -24.5 -108.5t-62.5 -118.5t-67 -92q-58 -67 -96 -123t-61 -116.5t-37 -149.5zM485 -16q-38 0 -73 25.5t-35 78.5q0 49 32 80t76 31q47 0 80 -33t33 -78q0 -51 -35.5 -77.5t-77.5 -26.5z" />
    <glyph glyph-name="at" unicode="@" horiz-adv-x="1886" 
d="M1171 817q0 133 -88 133q-52 0 -118.5 -49.5t-114 -140t-47.5 -205.5q0 -87 35.5 -129.5t93.5 -42.5q46 0 96.5 50t90 147.5t52.5 236.5zM1409 150l25 -62q-70 -33 -139 -59t-141 -42t-148 -16q-190 0 -337.5 64t-243 167t-141.5 219.5t-46 223.5q0 160 59.5 299
t162 236.5t238 150.5t287.5 53q140 0 263 -45t214 -126.5t143 -192t52 -240.5q0 -109 -46.5 -223t-134 -189t-200.5 -75q-87 0 -134.5 55t-47.5 90h-4q-23 -38 -91 -86.5t-145 -56.5q-71 0 -134 52t-63 202q0 83 47 200.5t138.5 204t218.5 86.5q63 0 90.5 -27t54.5 -79
l21 78h141l-133 -520q-4 -18 -4 -41q0 -91 78 -91q60 0 110 38.5t85 103.5t53 136t18 140q0 91 -39.5 185.5t-116.5 177t-187.5 131.5t-246.5 49q-118 0 -221.5 -44.5t-183 -133t-125 -221.5t-45.5 -297q0 -147 75 -279.5t211 -213.5t308 -81q86 0 155 13t122 32t128 54z
" />
    <glyph glyph-name="A" unicode="A" horiz-adv-x="1479" 
d="M1446 39v-39h-522v39q70 0 106.5 14t36.5 64q0 35 -39 129l-84 196h-536l-95 -239q-16 -43 -16 -78q0 -55 41.5 -70.5t97.5 -15.5v-39h-405v39q65 4 104 45q45 49 150 291l426 1005h41l510 -1163q36 -81 58.5 -114.5t50.5 -47t75 -16.5zM442 526h473l-237 564z" />
    <glyph glyph-name="B" unicode="B" horiz-adv-x="1366" 
d="M35 1317v39h573q206 0 371.5 -69.5t165.5 -276.5q0 -148 -80 -208.5t-193 -86.5v-4q151 -30 246.5 -115.5t95.5 -235.5q0 -65 -34 -145.5t-145 -147.5t-316 -67h-684v39q86 2 127.5 17.5t55 53.5t13.5 113v910q0 78 -14 115t-53 50.5t-129 18.5zM440 668v-508
q0 -55 31 -69.5t125 -14.5q153 0 268 56.5t115 236.5q0 115 -57.5 178t-149.5 90q-60 17 -129 24t-203 7zM440 1219v-471l195 2q102 0 201.5 46.5t99.5 200.5q0 164 -107 223.5t-251 59.5q-39 0 -56.5 -0.5t-36.5 -1.5q-28 0 -36.5 -15.5t-8.5 -43.5z" />
    <glyph glyph-name="C" unicode="C" horiz-adv-x="1366" 
d="M1270 924h-47q-20 84 -57.5 152t-94 119t-131 79.5t-168.5 28.5q-80 0 -162.5 -32.5t-144.5 -92.5q-74 -73 -122 -190t-48 -314q0 -205 69.5 -344t183.5 -204t249 -65q115 0 207 36t147 77.5t109 93.5l36 -37q0 -5 -39 -47.5t-108.5 -91.5t-174 -85t-233.5 -36
q-174 0 -330.5 73.5t-255 233.5t-98.5 400q0 165 57.5 299t156 224t223 136.5t260.5 46.5q81 0 144.5 -13t131 -33.5t84.5 -20.5q78 0 94 67h43z" />
    <glyph glyph-name="D" unicode="D" horiz-adv-x="1479" 
d="M33 0v39q81 5 117.5 20.5t49.5 52.5t13 111v910q0 77 -12.5 113.5t-49 50.5t-118.5 20v39h553q186 0 337 -42.5t258.5 -127t164.5 -213.5t57 -299q0 -114 -38.5 -230.5t-127.5 -217t-244 -163.5t-379 -63h-581zM422 1200v-1040q0 -52 24.5 -68t98.5 -16q89 0 182.5 14
t199 69t179.5 179.5t74 333.5q0 293 -191 465q-82 73 -186 108t-285 35q-64 0 -80 -19.5t-16 -60.5z" />
    <glyph glyph-name="E" unicode="E" horiz-adv-x="1251" 
d="M1223 346l-93 -346h-1105v39q72 5 108.5 18t53 50.5t16.5 115.5v910q0 80 -17 116.5t-53.5 49.5t-107.5 18v39h1087l6 -293h-51q-15 92 -44.5 137.5t-89.5 61.5t-177 16h-277q-38 0 -52.5 -10.5t-14.5 -59.5v-454h315q69 0 109 10t62 31.5t34 59t20 93.5h47v-475h-47
q-13 85 -32.5 125t-60 54t-132.5 16l-315 4v-508q0 -47 14 -62.5t68 -19.5t223 -4q98 0 167 13t119.5 43.5t89.5 82.5t72 129h58z" />
    <glyph glyph-name="F" unicode="F" horiz-adv-x="1139" 
d="M981 473h-47q-12 88 -34.5 127.5t-63.5 52.5t-127 15l-297 4v-449q0 -75 16 -113.5t54 -53t116 -17.5v-39h-573v39q80 5 116 21t49 58t13 128v887q0 80 -17 116.5t-53.5 49.5t-107.5 18v39h1087l6 -293h-51q-15 92 -44.5 137.5t-89.5 61.5t-177 16h-279
q-40 0 -52.5 -12.5t-12.5 -57.5v-454h297q83 0 128.5 17t65.5 58t31 119h47v-475z" />
    <glyph glyph-name="G" unicode="G" horiz-adv-x="1479" 
d="M1452 725v-37q-59 -6 -85 -14.5t-42 -42t-16 -101.5v-411q0 -16 -82 -52.5t-196.5 -66t-219.5 -29.5t-210.5 23t-199.5 71t-165 125q-61 67 -96 131t-54.5 156t-19.5 221q0 174 86 332.5t246 256t368 97.5q92 0 152 -12.5t125 -33.5t90 -21q22 0 55 15.5t41 51.5h45
l16 -432h-47q-54 148 -156.5 249.5t-291.5 101.5q-82 0 -167 -30.5t-160 -103.5t-122 -201.5t-47 -312.5q0 -138 37 -247.5t108 -190t170 -122.5t215 -42q110 0 195.5 34t85.5 87v332q0 82 -15.5 119t-50.5 47.5t-114 15.5v37h522z" />
    <glyph glyph-name="H" unicode="H" horiz-adv-x="1479" 
d="M39 0v39q88 5 124.5 23.5t46 58t9.5 125.5v887q0 78 -13.5 114t-50 50t-116.5 20v39h569v-39q-80 -6 -117 -21.5t-50 -52t-13 -110.5v-398h621v398q0 78 -13.5 114t-50.5 50t-117 20v39h570v-39q-79 -6 -117 -21.5t-51 -52t-13 -110.5v-910q0 -56 6 -87t24.5 -52
t53 -30.5t97.5 -14.5v-39h-570v39q88 5 124.5 23.5t46.5 58t10 125.5v399h-621v-422q0 -73 12.5 -109t51.5 -53.5t116 -21.5v-39h-569z" />
    <glyph glyph-name="I" unicode="I" horiz-adv-x="682" 
d="M37 0v39q87 1 129 17t56 53.5t14 113.5v910q0 79 -14.5 115.5t-54 50t-130.5 18.5v39h608v-39q-83 -3 -123.5 -15.5t-59 -50.5t-18.5 -118v-910q0 -60 10.5 -95t33.5 -54t59 -26t98 -9v-39h-608z" />
    <glyph glyph-name="J" unicode="J" horiz-adv-x="797" 
d="M569 1133v-758q0 -254 -116.5 -329t-227.5 -75q-113 0 -159 52q-46 50 -46 98q0 34 26.5 67t68.5 33q59 0 75.5 -26.5t38 -86t52.5 -59.5q39 0 59 29t20 106v949q0 75 -13.5 111.5t-53 52t-123.5 20.5v39h588v-39q-83 -5 -122 -19t-53 -50.5t-14 -114.5z" />
    <glyph glyph-name="K" unicode="K" horiz-adv-x="1479" 
d="M846 1317v39h536v-39q-100 -8 -154.5 -34t-156.5 -126l-389 -385l477 -512q74 -83 123 -129t95.5 -69t103.5 -23v-39h-625v39q87 3 115 11t28 40q0 43 -91.5 153.5t-174.5 190.5l-217 215l-53 -43v-383q0 -74 13 -111t50.5 -52.5t120.5 -20.5v-39h-577v39q84 5 121 21.5
t50 58t13 127.5v887q0 79 -16.5 116t-53.5 50t-114 18v39h581v-39q-82 -5 -121 -19t-53 -50.5t-14 -114.5v-420q225 202 306 276.5t131 125.5t67.5 81.5t17.5 56.5q0 39 -28 50t-111 14z" />
    <glyph glyph-name="L" unicode="L" horiz-adv-x="1251" 
d="M602 1356v-39q-81 -5 -117.5 -17t-54.5 -50.5t-18 -116.5v-969q0 -42 16 -58.5t54 -21t136 -4.5q131 0 212 7t142 32.5t110 81t92 155.5h51l-99 -356h-1101v39q72 5 108.5 18t53 50.5t16.5 115.5v910q0 80 -17 116.5t-53.5 49.5t-107.5 18v39h577z" />
    <glyph glyph-name="M" unicode="M" horiz-adv-x="1821" 
d="M1767 1356v-39q-71 -5 -107.5 -18t-53.5 -49.5t-17 -116.5v-910q0 -78 16.5 -115.5t53 -50.5t108.5 -18v-39h-573v39q83 5 121 21.5t51.5 57.5t13.5 128v919h-4l-520 -1165h-29l-510 1118h-4v-817q0 -106 17 -161t56.5 -76.5t119.5 -24.5v-39h-481v39q82 5 123 25t58 73
t17 164v832q0 79 -16.5 116.5t-54.5 50t-123 17.5v39h405l473 -1034l453 1034h407z" />
    <glyph glyph-name="N" unicode="N" horiz-adv-x="1479" 
d="M1448 1356v-39q-51 -5 -87 -14.5t-59.5 -33t-36 -74.5t-12.5 -140v-1078h-34l-902 1123h-4v-799q0 -106 17 -161t56.5 -76.5t119.5 -24.5v-39h-481v39q82 5 123 25t58 73t17 164v903q-60 74 -96.5 93.5t-101.5 19.5v39h350l784 -985h4v684q0 116 -19.5 169.5t-58.5 70.5
t-118 22v39h481z" />
    <glyph glyph-name="O" unicode="O" horiz-adv-x="1479" 
d="M739 -29q-184 0 -337.5 86t-242.5 246.5t-89 372.5q0 169 55.5 304t150 224t215 134.5t248.5 45.5q127 0 249.5 -46t215.5 -134t149 -223.5t56 -304.5q0 -212 -88.5 -372.5t-243 -246.5t-338.5 -86zM739 45q119 0 218.5 66.5t159 209t59.5 357.5q0 323 -128.5 478
t-308.5 155q-179 0 -307.5 -155t-128.5 -478q0 -162 34.5 -283t97 -199.5t140 -114.5t164.5 -36z" />
    <glyph glyph-name="P" unicode="P" horiz-adv-x="1139" 
d="M33 1317v39h540q108 0 205.5 -21.5t172 -66.5t117 -115.5t42.5 -165.5q0 -104 -39 -169t-86 -107q-65 -62 -168.5 -91.5t-265.5 -29.5q-63 0 -137 6v-373q0 -76 15.5 -114t57 -53t119.5 -17v-39h-573v39q84 6 120 25.5t44 57t8 124.5v887q0 73 -12 109.5t-47 51.5
t-113 23zM414 1210v-532q58 -6 123 -6q125 0 237.5 56t112.5 255q0 132 -71 198t-153 82.5t-165 16.5q-37 0 -52.5 -4t-23.5 -17.5t-8 -48.5z" />
    <glyph glyph-name="Q" unicode="Q" horiz-adv-x="1479" 
d="M1436 -326v-36q-29 -3 -97 -3q-480 0 -700 250l-96 113q-78 22 -159 69.5t-153 130t-116.5 204t-44.5 274.5q0 170 55.5 304t151.5 224.5t214.5 135t247.5 44.5q127 0 249.5 -46t215.5 -134t149 -223.5t56 -304.5q0 -159 -49.5 -285.5t-131 -213t-174.5 -133.5t-182 -58
q16 -27 75 -87t87 -83q56 -44 110.5 -73t128 -48.5t163.5 -20.5zM739 1311q-114 0 -212.5 -64t-161 -207t-62.5 -364q0 -161 34.5 -281.5t97 -199t140 -114.5t164.5 -36q119 0 218.5 66t159 208.5t59.5 356.5q0 171 -36.5 292t-99 197t-140 111t-161.5 35z" />
    <glyph glyph-name="R" unicode="R" horiz-adv-x="1366" 
d="M1350 39v-39h-330l-488 631l-114 -4v-404q0 -74 12 -110t50.5 -52.5t121.5 -21.5v-39h-567v39q83 5 119 24t45.5 58t9.5 125v887q0 78 -13.5 113t-47.5 49t-113 22v39h565q117 0 234 -27.5t201.5 -106.5t84.5 -225q0 -124 -64.5 -197t-140.5 -101t-165 -46l421 -518
q38 -44 79 -68.5t100 -27.5zM418 1206v-504q131 2 228 18t174 82t77 199q0 175 -112 227t-240 52q-81 0 -104 -14t-23 -60z" />
    <glyph glyph-name="S" unicode="S" horiz-adv-x="1139" 
d="M915 1384l46 -436h-52q-12 64 -43.5 126.5t-80.5 114t-113.5 81.5t-143.5 30q-82 0 -144 -50t-62 -140q0 -100 76 -164t251.5 -168t266 -200t90.5 -236q0 -92 -49.5 -177.5t-147.5 -139.5t-236 -54q-65 0 -118.5 13.5t-115.5 35t-83 21.5q-29 0 -46 -20t-17 -48h-46
l-61 435h47q35 -87 78.5 -161t129.5 -138t212 -64q78 0 134 33t84 84.5t28 109.5q0 64 -22 111.5t-95.5 108t-216.5 143.5q-110 63 -176.5 114.5t-105 120t-38.5 166.5q0 84 31 150t84 110.5t119.5 66t136.5 21.5q50 0 95 -12t109 -34.5t81 -22.5q58 0 71 69h43z" />
    <glyph glyph-name="T" unicode="T" horiz-adv-x="1251" 
d="M926 39v-39h-598v39q92 4 132 23.5t50 59t10 124.5v1024h-110q-119 0 -179 -19.5t-92 -73.5t-55 -169h-49l12 348h1155l12 -348h-49q-21 115 -54 169.5t-92.5 73.5t-178.5 19h-111v-1047q0 -73 14 -110.5t56 -54t127 -19.5z" />
    <glyph glyph-name="U" unicode="U" horiz-adv-x="1479" 
d="M1444 1356v-39q-64 -7 -99.5 -18.5t-56 -38t-29 -73.5t-8.5 -132v-535q0 -133 -27 -247t-144 -208t-359 -94q-176 0 -282.5 59t-154.5 145t-59.5 163.5t-11.5 155.5v639q0 78 -14 114.5t-52 50.5t-118 19v39h579v-39q-82 -6 -121 -21.5t-52 -52t-13 -110.5v-656
q0 -75 7 -135.5t41 -127.5t109 -110t199 -43q114 0 203 44.5t133 117.5q47 78 47 279v553q0 158 -39.5 207t-152.5 55v39h475z" />
    <glyph glyph-name="V" unicode="V" horiz-adv-x="1479" 
d="M1427 1356v-39q-48 -3 -78.5 -18t-54.5 -54t-55 -119l-455 -1149h-30l-504 1125q-61 136 -101.5 174t-115.5 41v39h545v-39q-96 -5 -125 -17t-29 -59q0 -21 18 -65.5t66 -153.5l309 -692l301 751q1 3 12.5 36t19 61t7.5 45q0 57 -36.5 73.5t-112.5 20.5v39h419z" />
    <glyph glyph-name="W" unicode="W" horiz-adv-x="1933" 
d="M1909 1356v-39q-74 -12 -106.5 -37.5t-55.5 -87.5q-119 -321 -180 -488.5t-125.5 -355t-120.5 -371.5h-31q-82 247 -327 867l-316 -867h-31q-33 101 -82.5 242t-123.5 345t-116.5 320t-72.5 193q-52 138 -90 185.5t-121 54.5v39h502v-39q-73 -3 -103 -17.5t-30 -52.5
q0 -31 22 -90l295 -770l219 578l-67 168q-26 67 -45 101.5t-41.5 53t-49 24t-71.5 5.5v39h547v-39q-68 0 -113 -14.5t-45 -63.5q0 -15 6.5 -35.5t24 -62.5t24.5 -62l271 -698l256 694q13 37 23 76t10 72q0 53 -35.5 70.5t-106.5 23.5v39h406z" />
    <glyph glyph-name="X" unicode="X" horiz-adv-x="1479" 
d="M1425 1356v-39q-94 -7 -150 -38t-155 -155l-299 -372l393 -562q44 -60 74.5 -89.5t66 -43.5t87.5 -18v-39h-608v39q91 5 124 16t33 54q0 24 -36 87t-68 107l-195 287l-243 -303q-58 -75 -82.5 -111t-24.5 -61q0 -44 40.5 -58t115.5 -18v-39h-478v39q61 5 95 21.5t76.5 62
t125.5 149.5l322 396l-223 327q-102 151 -161 216.5t-100 83t-110 22.5v39h619v-39q-91 -2 -123.5 -12.5t-32.5 -53.5q0 -31 33.5 -90t140.5 -213l86 -121l231 283q49 61 65.5 86.5t16.5 52.5q0 44 -36 55t-107 13v39h487z" />
    <glyph glyph-name="Y" unicode="Y" horiz-adv-x="1479" 
d="M1440 1356v-39q-51 -6 -85 -20t-83.5 -64.5t-114.5 -149.5l-303 -462v-398q0 -56 8 -91t28.5 -55t60 -28t114.5 -10v-39h-627v39q100 1 143 20t53.5 59t10.5 128v356l-268 393q-101 149 -156.5 216t-88 84t-87.5 22v39h573v-39q-85 -4 -115 -14t-30 -50q0 -38 35 -88
l303 -454l293 463q29 46 29 75q0 43 -38.5 55.5t-103.5 12.5v39h449z" />
    <glyph glyph-name="Z" unicode="Z" horiz-adv-x="1251" 
d="M1176 360h47l-49 -360h-1156v31l895 1247h-452q-136 0 -207 -37t-94.5 -88t-42.5 -147h-54l41 350h1078v-31l-885 -1247h526q125 0 194.5 37t99.5 93t59 152z" />
    <glyph glyph-name="bracketleft" unicode="[" horiz-adv-x="682" 
d="M612 1305h-184q-61 0 -76.5 -27t-15.5 -64v-1376q0 -106 100 -106h176v-51h-432v1675h432v-51z" />
    <glyph glyph-name="backslash" unicode="\" horiz-adv-x="569" 
d="M-18 1384h137l469 -1413h-139z" />
    <glyph glyph-name="bracketright" unicode="]" horiz-adv-x="682" 
d="M70 -268h184q41 0 62 15t25.5 33.5t4.5 41.5v1376q0 107 -100 107h-176v51h432v-1675h-432v51z" />
    <glyph glyph-name="asciicircum" unicode="^" horiz-adv-x="961" 
d="M188 608h-139l371 748h123l370 -748h-139l-293 592z" />
    <glyph glyph-name="underscore" unicode="_" 
d="M1024 -256h-1024v102h1024v-102z" />
    <glyph glyph-name="grave" unicode="`" horiz-adv-x="682" 
d="M496 1038h-82l-316 199q-59 39 -59 88q0 9 4 23t19 27.5t42 13.5q26 0 39.5 -6.5t51.5 -41.5z" />
    <glyph glyph-name="a" unicode="a" horiz-adv-x="909" 
d="M588 252v297q-202 -67 -267 -140t-65 -147v-4q0 -70 38.5 -115t96.5 -45q29 0 68 13t59 24q31 15 46.5 30.5t19.5 35t4 51.5zM905 135v-53q-56 -65 -99.5 -83.5t-82.5 -18.5q-123 0 -133 149q-71 -64 -145 -106.5t-152 -42.5q-89 0 -153 57.5t-64 155.5q0 75 32 130
t93 96.5t149 81t238 97.5v125q0 98 -47.5 134t-110.5 36q-55 0 -100 -27.5t-45 -72.5q0 -10 5 -39t5 -41q0 -32 -26 -60t-66 -28q-44 0 -66 29.5t-22 60.5q0 78 86.5 152.5t247.5 74.5q139 0 206.5 -51.5t83 -118.5t15.5 -158v-399q0 -59 10 -89t49 -30q44 0 92 39z" />
    <glyph glyph-name="b" unicode="b" 
d="M313 659v-516q0 -46 71 -72t126 -26q109 0 168.5 59t79.5 141.5t20 166.5q0 101 -27 192.5t-85.5 150t-147.5 58.5q-65 0 -131.5 -38t-73.5 -116zM141 111v1063q0 57 -14.5 80.5t-75.5 23.5q-33 0 -45 -2v33q175 46 297 90l10 -4v-619h4q6 26 45 66.5t100 70t132 29.5
q117 0 199.5 -65t123.5 -170t41 -220q0 -79 -27 -165.5t-85.5 -164t-155 -127.5t-231.5 -50q-55 0 -131.5 18t-131.5 48.5t-55 64.5z" />
    <glyph glyph-name="c" unicode="c" horiz-adv-x="909" 
d="M815 319l29 -18q-56 -117 -118.5 -187t-135 -102t-156.5 -32q-87 0 -176.5 49.5t-148 152t-58.5 254.5q0 122 39.5 217t105 159.5t147 97t167.5 32.5q54 0 115 -18.5t102 -44.5q43 -29 65.5 -71t22.5 -73q0 -37 -25 -62t-69 -28q-37 0 -63.5 28t-36.5 66l-13 45
q-15 57 -38 78t-97 21q-50 0 -111 -32.5t-107 -114.5t-46 -218q0 -113 42 -203t113 -139t158 -49q101 0 165.5 49t127.5 143z" />
    <glyph glyph-name="d" unicode="d" 
d="M696 209v471q-4 49 -24 89.5t-49.5 66t-64.5 37.5t-73 12q-63 0 -121 -39t-95.5 -124t-37.5 -216q0 -211 84 -315.5t199 -104.5q68 0 119 34t63 89zM1006 119v-33q-55 -19 -301 -106l-9 6v125h-4q-87 -131 -264 -131q-119 0 -246 95t-127 363q0 100 33 190t93.5 162.5
t137.5 112t160 39.5q117 0 217 -88v320q0 57 -14.5 80.5t-75.5 23.5q-33 0 -49 -2v33q171 44 301 90l10 -4v-1162q0 -66 22 -90t116 -24z" />
    <glyph glyph-name="e" unicode="e" horiz-adv-x="909" 
d="M836 336l32 -14q-20 -59 -66.5 -134.5t-141.5 -141.5t-226 -66q-114 0 -201 54.5t-134.5 157.5t-47.5 246q0 135 40 232.5t103 157t136.5 87t138.5 27.5q154 0 249 -91.5t111 -283.5h-636q11 -168 61 -268.5t118.5 -139t145.5 -38.5q119 0 189.5 61.5t128.5 153.5z
M199 633h422q-15 107 -52.5 171t-144.5 64q-90 0 -146 -53t-79 -182z" />
    <glyph glyph-name="f" unicode="f" horiz-adv-x="682" 
d="M633 922v-66h-250v-643q0 -75 9.5 -109t50 -53t130.5 -20v-31h-532v31q75 3 108.5 16t47.5 50.5t14 115.5v643h-168v66h168q0 73 8.5 144.5t42.5 148.5t112 130.5t206 53.5q57 0 104 -17t73.5 -46t26.5 -62q0 -41 -26.5 -63.5t-61.5 -22.5q-27 0 -45.5 17.5t-43.5 56
t-47.5 59t-55.5 20.5q-75 0 -99 -52.5t-24 -129.5v-237h252z" />
    <glyph glyph-name="g" unicode="g" 
d="M201 -184q0 -57 74 -101.5t233 -44.5q115 0 202 26.5t132 72t45 100.5q0 43 -30 64.5t-84.5 27.5t-137.5 8q-137 4 -173.5 5.5t-72.5 6t-88 15.5q-35 -42 -57 -72t-32.5 -54t-10.5 -54zM311 700q0 -138 51.5 -241t161.5 -103q91 0 120.5 64.5t29.5 132.5
q0 44 -18.5 123.5t-65 144t-125.5 64.5q-63 0 -108.5 -45t-45.5 -140zM963 795h-170q38 -89 38 -189q0 -101 -53.5 -169t-130 -100t-141.5 -32q-2 0 -50 5t-61 5q-31 -3 -77 -51t-46 -78q0 -50 160 -55l264 -12q98 -4 154 -43.5t75 -87.5t19 -88q0 -82 -53 -147.5t-137 -110
t-171.5 -66.5t-162.5 -22q-153 0 -258 58.5t-105 139.5q0 63 54 123.5t147 126.5q-61 32 -84.5 51.5t-23.5 57.5q0 22 8.5 41.5t46.5 60.5t127 121q-92 42 -141.5 110t-49.5 156q0 169 108.5 255.5t244.5 86.5q50 0 93.5 -11.5t104.5 -35.5q56 -21 113 -21h158v-79z" />
    <glyph glyph-name="h" unicode="h" 
d="M997 31v-31h-434v31q54 5 83.5 17t42.5 47.5t13 113.5v405q0 217 -157 217q-114 0 -223 -129v-493q0 -78 13 -113.5t42.5 -47.5t83.5 -17v-31h-443v31q63 9 87.5 21t34.5 45.5t10 111.5v965q0 57 -15 80.5t-76 23.5q-32 0 -39 -2v33q180 50 291 90l11 -6v-619h4
q55 80 130.5 124t164.5 44q253 0 253 -326v-407q0 -77 9.5 -110t33 -45.5t80.5 -22.5z" />
    <glyph glyph-name="i" unicode="i" horiz-adv-x="569" 
d="M33 0v31q69 3 102 14.5t46.5 47.5t13.5 116v475q0 80 -18.5 101.5t-53.5 21.5q-28 0 -82 -8v30q106 36 172 60t145 53l9 -6v-727q0 -75 9 -109t39 -49t103 -20v-31h-485zM190 1212q0 31 23.5 62t67.5 31q41 0 67.5 -27.5t26.5 -65.5t-27 -65t-67 -27q-44 0 -67.5 30
t-23.5 62z" />
    <glyph glyph-name="j" unicode="j" horiz-adv-x="569" 
d="M223 -92v776q0 80 -18.5 101.5t-52.5 21.5q-26 0 -86 -8v32q164 51 319 111l10 -6v-936q0 -199 -82 -322.5t-266 -123.5q-76 0 -133 30.5t-57 83.5q0 33 26 55.5t56 22.5q29 0 52 -17t48 -47.5t42 -44.5t40 -14q47 0 69.5 34t27.5 89.5t5 161.5zM219 1202q0 19 10 41
t30 36.5t50 14.5q43 0 68.5 -25.5t25.5 -66.5q0 -40 -26 -66t-68 -26q-31 0 -51 14.5t-29.5 36t-9.5 41.5z" />
    <glyph glyph-name="k" unicode="k" 
d="M14 0v31q72 11 103.5 21.5t41 34.5t9.5 81v987q0 51 -6.5 76.5t-26 37t-59.5 11.5q-28 0 -62 -4v33q190 49 318 90l8 -4v-852l4 -4q21 18 63 55.5t76.5 69t74 66t63.5 54.5q47 45 47 70q0 19 -21.5 29t-81.5 10v29h418v-31q-67 0 -111 -12t-121 -67t-210 -179l-60 -55
l314 -398q71 -88 127.5 -116.5t111.5 -32.5v-31h-446v31h39q43 0 43 32q0 7 -5 15.5t-17.5 24.5t-20.5 28l-283 377h-4v-371q0 -59 28 -80t85 -24l41 -2v-31h-480z" />
    <glyph glyph-name="l" unicode="l" horiz-adv-x="569" 
d="M43 0v31q92 6 125 35t33 112v977q0 51 -7 76.5t-27 37t-58 11.5q-22 0 -70 -4v33q183 44 326 90l8 -4v-1223q0 -59 13 -87.5t44.5 -39.5t95.5 -14v-31h-483z" />
    <glyph glyph-name="m" unicode="m" horiz-adv-x="1593" 
d="M176 174v518q0 85 -18.5 108t-53.5 23q-33 0 -65 -8v35q158 44 287 92l14 -4v-154q77 60 122.5 90.5t93 49t99.5 18.5q64 0 109 -24t72 -63.5t38 -84.5q55 62 140.5 117t189.5 55q142 0 192 -106t50 -258v-422q0 -49 15 -80.5t73 -40.5l53 -4v-31h-448v31q60 7 85.5 16.5
t37.5 38.5t12 92v432q0 109 -25.5 167.5t-124.5 58.5q-145 0 -227 -125v-516q0 -74 18.5 -108.5t47 -44t81.5 -11.5v-31h-458v31q55 4 82.5 12.5t42 38.5t14.5 94v445q0 106 -32.5 160.5t-108.5 54.5q-64 0 -116.5 -25.5t-86 -56t-33.5 -39.5v-578q0 -67 35.5 -85.5
t103.5 -20.5v-31h-454v31q75 2 109 25.5t34 117.5z" />
    <glyph glyph-name="n" unicode="n" 
d="M164 184v508q0 85 -18.5 108t-53.5 23q-43 0 -59 -8v35q165 48 282 92l15 -4v-162q94 88 155.5 127t143.5 39q92 0 165.5 -69t73.5 -238v-469q0 -73 26 -101t99 -34v-31h-426v31q68 5 98.5 35.5t30.5 136.5v428q0 100 -35.5 149t-121.5 49q-82 0 -203 -116v-576
q0 -52 29 -77t106 -29v-31h-434v31q51 3 77.5 16t38 44t11.5 93z" />
    <glyph glyph-name="o" unicode="o" 
d="M502 942q100 0 184 -31.5t147.5 -95t96.5 -151.5t33 -197q0 -108 -51.5 -221.5t-154.5 -189.5t-249 -76q-130 0 -232 63.5t-159.5 174.5t-57.5 249q0 93 31 181t88.5 152.5t141 103t182.5 38.5zM537 37q59 0 113.5 34t91 117t36.5 220q0 131 -34 238.5t-101.5 173
t-157.5 65.5q-66 0 -121 -36.5t-87.5 -108t-32.5 -175.5q0 -101 25 -222t91 -213.5t177 -92.5z" />
    <glyph glyph-name="p" unicode="p" 
d="M154 -268v958q0 66 -14 91.5t-64 25.5q-39 0 -58 -2v33q80 24 138.5 45t156.5 59l13 -4v-150l4 -4q27 37 66 72t97.5 60.5t131.5 25.5q90 0 168.5 -54t124 -154t45.5 -232q0 -91 -27.5 -183t-84 -169.5t-136.5 -123.5t-183 -46q-60 0 -108 19.5t-98 68.5v-322
q0 -66 14 -98.5t52.5 -44t113.5 -11.5v-36h-496v34q66 6 96.5 22t39 43t8.5 77zM326 684v-504q0 -39 65 -87t144 -48q49 0 105.5 29t101 116.5t44.5 249.5q0 58 -16 142.5t-74 160.5t-170 76q-39 0 -83 -18t-77.5 -49t-39.5 -68z" />
    <glyph glyph-name="q" unicode="q" 
d="M737 870l111 66l14 6l8 -8v-1223q0 -47 12.5 -70.5t39 -34t77.5 -22.5v-28h-483v34q74 3 114 20t54 49t14 87v381h-10q-28 -49 -121.5 -98t-181.5 -49q-69 0 -129.5 28t-107 85t-73 144t-26.5 197q0 140 60.5 256t166 184t230.5 68q70 0 115.5 -16t115.5 -56zM698 260
v422q0 79 -35 141t-161 62t-201.5 -107t-75.5 -291q0 -71 16 -140t48.5 -123.5t82.5 -87t115 -32.5q53 0 103 19q53 20 74.5 38t26.5 36.5t7 62.5z" />
    <glyph glyph-name="r" unicode="r" horiz-adv-x="682" 
d="M156 172v512q0 80 -18.5 101.5t-53.5 21.5q-32 0 -70 -8v32q92 31 147.5 51t155.5 60l11 -4v-182h4q68 103 124.5 144.5t118.5 41.5q52 0 81.5 -29.5t29.5 -81.5q0 -40 -21 -65t-57 -25q-31 0 -43.5 9.5t-45 36t-52.5 26.5q-38 0 -88.5 -60.5t-50.5 -107.5v-461
q0 -51 12.5 -82t34.5 -45.5t50 -19t77 -6.5v-31h-492v31q67 12 94 22t39.5 36.5t12.5 82.5z" />
    <glyph glyph-name="s" unicode="s" horiz-adv-x="797" 
d="M645 643h-31q-30 144 -89 198t-138 54q-76 0 -116 -42t-40 -91q0 -92 88 -146l222 -131q86 -52 129 -104t43 -137q0 -124 -93.5 -194t-203.5 -70q-39 0 -64.5 4.5t-88.5 18t-85 13.5q-29 0 -45 -24h-27v319h33q17 -76 41 -136t78 -105t145 -45q66 0 116 34.5t50 114.5
q0 92 -106 152l-119 67q-62 36 -99 62t-70.5 61t-52 78.5t-18.5 97.5q0 61 31.5 118.5t97.5 94.5t158 37q56 0 117.5 -20.5t71.5 -20.5q19 0 34 23h23z" />
    <glyph glyph-name="t" unicode="t" horiz-adv-x="569" 
d="M522 922v-66h-207v-586q0 -77 18 -130.5t87 -53.5q43 0 70.5 20.5t54.5 51.5l26 -23q-36 -67 -103 -111t-136 -44q-189 0 -189 260v616h-108q-8 4 -8 14q0 15 36 39.5t54 42.5q54 55 79 87.5t105 146.5q14 0 14 -27v-237h207z" />
    <glyph glyph-name="u" unicode="u" 
d="M981 102v-28q-88 -23 -285 -92l-4 4v170l-88 -88q-53 -53 -111 -70.5t-104 -17.5q-53 0 -108 23.5t-95.5 83.5t-40.5 159v516q0 82 -32 104.5t-95 26.5v29h299v-668q0 -44 34 -100t120 -56q88 0 178 74q33 28 33 104v482q0 70 -26.5 98t-125.5 31v35h324v-703
q0 -46 7 -68.5t34 -35.5t86 -13z" />
    <glyph glyph-name="v" unicode="v" 
d="M977 922v-31q-49 -4 -70.5 -31.5t-62.5 -128.5l-262 -657q-17 -44 -31.5 -73.5t-24.5 -29.5q-6 0 -10.5 2.5t-13.5 20.5t-12.5 26.5t-18.5 47.5q-23 60 -92 227.5t-132.5 313t-94.5 206.5q-36 72 -113 76v31h401v-31q-48 -4 -71 -15t-23 -47q0 -28 19 -71l208 -525
q14 39 84.5 216.5t100.5 259t30 114.5q0 64 -96 68v31h285z" />
    <glyph glyph-name="w" unicode="w" horiz-adv-x="1479" 
d="M1169 922h252v-31q-31 -10 -44.5 -29.5t-39.5 -81.5l-282 -708q-22 -55 -34 -78t-24 -23q-7 0 -13 6.5t-15.5 31t-20.5 50.5l-186 484l-230 -492q-28 -57 -35.5 -68.5t-15.5 -11.5q-10 0 -17 12t-36 78l-276 701q-30 74 -51 100t-58 29v31h369v-31q-45 -4 -70 -17
t-25 -53q0 -33 27 -107t88.5 -228t99.5 -259l187 408q-36 111 -61.5 164.5t-50 70t-70.5 21.5v31h415v-31q-42 -6 -65 -12t-38 -22t-15 -42q0 -19 4 -35t14.5 -41t24.5 -63l163 -438l185 454q35 81 35 131q0 33 -22 46t-69 22v31z" />
    <glyph glyph-name="x" unicode="x" 
d="M618 150l-165 253l-162 -251q-41 -65 -41 -84q3 -25 24 -31t58 -6v-31h-297v31q47 5 77 23.5t72 80.5l234 338l-193 295q-42 61 -67.5 86t-47 31t-61.5 6v31h424v-31q-88 0 -88 -47q0 -35 123 -221q89 127 113 165.5t24 55.5q0 28 -22 36.5t-60 10.5v31h324v-31
q-57 -1 -103 -32t-63 -58l-170 -246l262 -401q35 -54 66.5 -81t51.5 -33t50 -9v-31h-412v31q49 2 65.5 11.5t16.5 41.5q0 26 -33 66z" />
    <glyph glyph-name="y" unicode="y" 
d="M973 922v-31q-31 -5 -54.5 -21t-44.5 -71l-315 -836q-56 -146 -105.5 -233t-108.5 -131.5t-134 -44.5q-71 0 -110.5 36.5t-39.5 81.5q0 27 19.5 58.5t79.5 31.5q31 0 84 -18t61 -18q37 0 71.5 40.5t61.5 101t41.5 109.5t14.5 64q0 14 -22.5 63.5t-57.5 120.5t-47 99
l-234 503q-25 54 -104 66v29h422v-31q-55 -2 -87 -12t-32 -48q0 -26 20 -73l236 -518l160 454q11 29 22 59t18 50.5t7 30.5q0 57 -99 57v31h277z" />
    <glyph glyph-name="z" unicode="z" horiz-adv-x="909" 
d="M856 276l-29 -276h-772v31l545 829h-283q-69 0 -104 -20.5t-46.5 -54.5t-21.5 -105h-36l6 242h710v-31l-551 -830h283q106 0 155 21.5t68 64t39 138.5z" />
    <glyph glyph-name="braceleft" unicode="{" horiz-adv-x="983" 
d="M379 -84v363q0 103 -36.5 154.5t-137.5 78.5q102 27 138 77.5t36 153.5v365q0 117 39 179t112.5 84t186.5 22v-23q-71 -16 -112 -47.5t-58 -82t-17 -122.5v-344q0 -78 -14 -128t-54.5 -83.5t-117.5 -50.5v-4q78 -18 118 -50t54 -81.5t14 -128.5v-344q0 -72 17 -122.5
t58 -82t112 -47.5v-23q-114 0 -187 22t-112 84.5t-39 180.5z" />
    <glyph glyph-name="bar" unicode="|" horiz-adv-x="410" 
d="M137 -29v1413h135v-1413h-135z" />
    <glyph glyph-name="braceright" unicode="}" horiz-adv-x="983" 
d="M604 1106v-363q0 -103 36 -153t138 -78q-102 -28 -138 -79t-36 -154v-365q0 -117 -39 -179t-112.5 -84t-186.5 -22v23q107 25 147 82.5t40 169.5v344q0 118 37 177.5t149 84.5v4q-113 25 -149.5 83.5t-36.5 176.5v344q0 72 -17 122.5t-58 82t-112 47.5v23
q176 0 257 -57.5t81 -229.5z" />
    <glyph glyph-name="asciitilde" unicode="~" horiz-adv-x="1108" 
d="M954 662l74 -103q-58 -83 -115.5 -129.5t-140.5 -46.5q-50 0 -97.5 17t-111.5 51q-128 71 -235 71q-106 0 -172 -147l-74 102q92 176 256 176q82 0 227 -65q20 -9 69 -31t83 -32.5t57 -10.5q54 0 95 39t85 109z" />
    <glyph glyph-name="Zcaron" horiz-adv-x="1251" 
d="M1176 360h47l-49 -360h-1156v31l895 1247h-452q-136 0 -207 -37t-94.5 -88t-42.5 -147h-54l41 350h1078v-31l-885 -1247h526q125 0 194.5 37t99.5 93t59 152zM926 1753l-228 -293h-112l-228 293h62l221 -180l223 180h62z" />
    <glyph glyph-name="ogonek" horiz-adv-x="682" 
d="M469 -150l41 -32q-41 -65 -100.5 -110.5t-124.5 -45.5q-68 0 -111 44t-43 122q0 46 35.5 95t75.5 77h94q-90 -71 -90 -141q0 -37 22.5 -59.5t50.5 -22.5t53 9.5t49.5 26.5t47.5 37z" />
    <glyph glyph-name="caron" horiz-adv-x="682" 
d="M659 1380l-256 -342h-127l-253 342h69l248 -211l250 211h69z" />
    <glyph glyph-name="quotesinglbase" unicode="&#x201a;" horiz-adv-x="682" 
d="M217 -289l-18 39q89 56 128.5 116.5t39.5 100.5q0 13 -8.5 21t-20.5 8q-1 0 -19 -4q-12 -4 -30 -4q-50 0 -88.5 24t-38.5 78q0 61 36.5 90t82.5 29q56 0 110.5 -43t54.5 -154q0 -67 -41 -131t-97.5 -111.5t-90.5 -58.5z" />
    <glyph glyph-name="florin" unicode="&#x192;" 
d="M885 834l-21 -64h-246q-21 -160 -33.5 -260t-26 -193.5t-21.5 -136.5q-37 -193 -83 -315t-114 -187t-164 -65q-74 0 -118 41t-44 102q0 49 32 69.5t63 20.5q35 0 54 -20t19 -55q0 -24 -15 -50t-15 -32q0 -27 38 -27q82 0 120.5 100.5t51.5 255.5l31 353q16 198 47 368
l4 31h-227l21 64h219q14 89 30 160t58 165.5t114 159.5t175 65q52 0 90.5 -21t59 -52.5t20.5 -61.5q0 -43 -29 -69.5t-68 -26.5q-34 0 -55 23t-21 47q0 15 13.5 41t13.5 34q0 27 -45 27q-63 0 -99 -62t-54 -161.5t-33 -267.5h258z" />
    <glyph glyph-name="quotedblbase" unicode="&#x201e;" horiz-adv-x="909" 
d="M147 -289l-18 39q89 56 128.5 116.5t39.5 100.5q0 14 -8 21.5t-21 7.5q-2 0 -18 -4q-12 -4 -31 -4q-50 0 -88.5 24t-38.5 78q0 61 37 90t82 29q56 0 111 -43.5t55 -153.5q0 -96 -83 -187t-147 -114zM623 -289l-19 39q89 56 128.5 116.5t39.5 100.5q0 14 -8 21.5t-21 7.5
q-2 0 -18 -4q-12 -4 -31 -4q-50 0 -88.5 24t-38.5 78q0 61 37 90t82 29q56 0 111 -43.5t55 -153.5q0 -64 -41.5 -130t-98 -112.5t-89.5 -58.5z" />
    <glyph glyph-name="ellipsis" unicode="&#x2026;" horiz-adv-x="2048" 
d="M340 -23q-40 0 -76.5 29.5t-36.5 81.5q0 49 33 83t80 34t81 -34t34 -83q0 -52 -38.5 -81.5t-76.5 -29.5zM1022 -23q-40 0 -76.5 29.5t-36.5 81.5q0 49 33 83t80 34t81 -34t34 -83q0 -52 -38.5 -81.5t-76.5 -29.5zM1704 -23q-40 0 -76.5 29.5t-36.5 81.5q0 48 33.5 82.5
t79.5 34.5q47 0 81 -34t34 -83q0 -52 -38.5 -81.5t-76.5 -29.5z" />
    <glyph glyph-name="dagger" unicode="&#x2020;" 
d="M537 -305h-43l-2 252q-3 124 -17 240.5t-32 201t-37 129.5q40 40 59 109t23 132.5t4 137.5q-58 -4 -99.5 -14.5t-78.5 -26.5t-59 -22.5t-50 -6.5q-32 0 -58 21t-26 70q0 43 26 65.5t58 22.5q39 0 93.5 -25t88 -35.5t105.5 -11.5q0 107 -13.5 159t-37 105t-23.5 90
q0 39 28.5 67.5t67.5 28.5q23 0 45.5 -13.5t35.5 -36t13 -46.5q0 -37 -23.5 -92t-36.5 -105t-13 -157q71 1 104.5 11.5t88 35.5t93.5 25q33 0 58.5 -22t25.5 -66q0 -48 -25 -69.5t-59 -21.5q-28 0 -45.5 5t-59.5 23t-82.5 28t-98.5 14q0 -74 4 -137.5t23 -132.5t59 -109
q-31 -66 -56.5 -231t-25.5 -340z" />
    <glyph glyph-name="daggerdbl" unicode="&#x2021;" 
d="M905 918q0 -48 -25 -69.5t-59 -21.5q-28 0 -45.5 5t-59.5 23t-82.5 28t-98.5 14v-49q0 -220 81 -316q-50 -54 -67 -137.5t-17 -177.5v-43q59 4 100 15t80 27t56 22t51 6t59 -21t25 -69q0 -43 -25.5 -65.5t-58.5 -22.5q-38 0 -88 22.5t-88.5 35t-110.5 13.5
q0 -107 13.5 -159t37 -105t23.5 -90q0 -24 -13 -46.5t-35.5 -36t-45.5 -13.5q-39 0 -67.5 29.5t-28.5 66.5t23.5 92t36.5 105t13 157q-71 -1 -109.5 -13.5t-88.5 -35t-88 -22.5q-32 0 -58 22t-26 66q0 47 26 68.5t58 21.5q33 0 53.5 -6.5t55 -21.5t77 -26.5t100.5 -15.5
q0 132 -14.5 223t-66.5 135q54 72 69 168.5t15 196.5q-58 -4 -99.5 -14.5t-78.5 -26.5t-59 -22.5t-50 -6.5q-32 0 -58 21t-26 70q0 43 26 65.5t58 22.5q39 0 93.5 -25t88 -35.5t105.5 -11.5q0 107 -13.5 159t-37 105t-23.5 90q0 39 28.5 67.5t67.5 28.5q23 0 45.5 -13.5
t35.5 -36t13 -46.5q0 -37 -23.5 -92t-36.5 -105t-13 -157q71 1 104.5 11.5t88 35.5t93.5 25q33 0 58.5 -22t25.5 -66z" />
    <glyph glyph-name="circumflex" unicode="&#x2c6;" horiz-adv-x="682" 
d="M659 1038h-69l-250 211l-248 -211h-69l253 342h127z" />
    <glyph glyph-name="perthousand" unicode="&#x2030;" horiz-adv-x="2048" 
d="M1161 1446l-880 -1483h-97l793 1325l-4 4q-41 -47 -94 -72.5t-160 -25.5q-43 0 -131 29q8 -46 8 -82q0 -78 -24 -160t-69.5 -154.5t-108.5 -115.5t-138 -43t-158.5 62.5t-83.5 240.5q0 90 52.5 186.5t142.5 161.5t199 65q45 0 69.5 -15t64.5 -50t85 -53.5t112 -18.5
q49 0 86 10.5t70 32t70 55.5t106 101h90zM160 877q0 -60 27 -107t94 -47q55 0 105 40t85 101t55.5 134.5t20.5 136.5q0 73 -9 92.5t-42 32.5q-22 10 -36 19t-27.5 23t-26.5 27q-86 -28 -141 -115.5t-80 -186.5t-25 -150zM1096 676q95 0 146.5 -62.5t51.5 -158.5
q0 -143 -49 -255.5t-127 -175.5t-157 -63q-49 0 -106.5 26.5t-100.5 92t-43 172.5q0 101 56.5 201t146.5 161.5t182 61.5zM1120 618q-77 0 -136.5 -84t-92.5 -193.5t-33 -172.5q0 -61 30 -106.5t81 -45.5q66 0 119 43.5t88.5 110.5t53 136t17.5 122q0 93 -35.5 141.5
t-91.5 48.5zM1837 676q95 0 147 -62.5t52 -158.5q0 -143 -49 -255.5t-127 -175.5t-158 -63q-49 0 -106.5 26.5t-100.5 92t-43 172.5q0 102 57 202t146.5 161t181.5 61zM1862 618q-76 0 -136 -83t-93.5 -193.5t-33.5 -173.5q0 -61 30 -106.5t81 -45.5q66 0 119 43.5
t87.5 109.5t53.5 139t19 120q0 94 -36 142t-91 48z" />
    <glyph glyph-name="Scaron" unicode="&#x160;" horiz-adv-x="1139" 
d="M915 1384l46 -436h-52q-12 64 -43.5 126.5t-80.5 114t-113.5 81.5t-143.5 30q-82 0 -144 -50t-62 -140q0 -100 76 -164t251.5 -168t266 -200t90.5 -236q0 -92 -49.5 -177.5t-147.5 -139.5t-236 -54q-65 0 -118.5 13.5t-115.5 35t-83 21.5q-29 0 -46 -20t-17 -48h-46
l-61 435h47q35 -87 78.5 -161t129.5 -138t212 -64q78 0 134 33t84 84.5t28 109.5q0 64 -22 111.5t-95.5 108t-216.5 143.5q-110 63 -176.5 114.5t-105 120t-38.5 166.5q0 84 31 150t84 110.5t119.5 66t136.5 21.5q50 0 95 -12t109 -34.5t81 -22.5q58 0 71 69h43zM817 1788
l-227 -293h-113l-227 293h61l221 -180l224 180h61z" />
    <glyph glyph-name="guilsinglleft" unicode="&#x2039;" horiz-adv-x="682" 
d="M129 465l64 55q192 166 335 307q25 25 33 25q21 0 21 -23q0 -31 -263 -368q23 -31 85 -106t85 -107q95 -126 95 -158q0 -22 -23 -22q-8 0 -101 93t-159 150q-19 16 -70.5 62t-76.5 68t-25 24z" />
    <glyph glyph-name="OE" unicode="&#x152;" horiz-adv-x="1821" 
d="M1716 1067h-47q-10 99 -46.5 144t-104 58t-193.5 13h-104q-91 0 -112.5 -9t-21.5 -40v-483q191 0 267.5 3.5t120.5 21.5t59 53.5t27 119.5h45v-479h-45q-8 81 -28.5 124t-68.5 58q-35 16 -87 19.5t-290 3.5v-502q0 -61 25.5 -77.5t89.5 -16.5l254 4q55 2 103 22t98 76
t106 164h49l-90 -344h-716q-94 0 -187 -6q-62 -2 -106.5 -4t-75.5 -2q-116 0 -220 43.5t-183.5 126t-126 206.5t-46.5 279q0 249 84.5 410.5t232.5 238t341 76.5q25 0 115 -6q177 -6 215 -6h667v-289zM883 268v811q0 96 -40.5 155.5t-162.5 59.5q-134 0 -222 -83
t-127.5 -223t-39.5 -312q0 -281 92 -447t299 -166q118 0 159.5 54.5t41.5 150.5z" />
    <glyph glyph-name="Lslash" horiz-adv-x="1251" 
d="M1225 356l-99 -356h-1101v39q72 5 108.5 18t53 50.5t16.5 115.5v348l-178 -108v100l178 111v459q0 80 -17 116.5t-53.5 49.5t-107.5 18v39h577v-39q-81 -5 -117.5 -17t-54.5 -50.5t-18 -116.5v-359l317 195v-101l-317 -192v-512q0 -42 16 -58.5t54 -21t136 -4.5
q131 0 212 7t142 32.5t110 81t92 155.5h51z" />
    <glyph glyph-name="ordmasculine" horiz-adv-x="635" 
d="M322 1384q84 0 153.5 -33.5t108.5 -95.5t39 -145q0 -72 -34.5 -141.5t-107 -115.5t-176.5 -46q-84 0 -151 38t-104.5 103t-37.5 142q0 82 36.5 149t108 106t165.5 39zM311 1317q-65 0 -107 -38t-42 -105q0 -62 13 -129t49 -119t100 -52q61 0 105 38t44 126q0 57 -11 110
t-31.5 89.5t-51 58t-68.5 21.5z" />
    <glyph glyph-name="fraction" horiz-adv-x="342" 
d="M678 1384l-922 -1413h-100l928 1413h94z" />
    <glyph glyph-name="breve" horiz-adv-x="682" 
d="M569 1360h60q-6 -64 -26.5 -133t-84 -129t-182.5 -60q-77 0 -141.5 35t-103 108.5t-38.5 178.5h60q11 -64 39 -108t75 -67.5t113 -23.5q71 0 115 26.5t65 63t49 109.5z" />
    <glyph glyph-name="quoteleft" unicode="&#x2018;" horiz-adv-x="682" 
d="M465 1384l18 -38q-88 -56 -128 -116.5t-40 -101.5q0 -12 9.5 -20t19.5 -8q2 0 18 4q14 4 31 4q50 0 88.5 -23t38.5 -79q0 -60 -36.5 -89.5t-82.5 -29.5q-56 0 -110.5 43t-54.5 153q0 49 26 101.5t62 92.5t76 69.5t65 37.5z" />
    <glyph glyph-name="quoteright" unicode="&#x2019;" horiz-adv-x="682" 
d="M217 887l-18 39q89 56 128.5 116.5t39.5 100.5q0 12 -8.5 20t-20.5 8q-1 0 -19 -4q-12 -4 -30 -4q-50 0 -88.5 23.5t-38.5 79.5q0 61 35.5 89.5t83.5 28.5q57 0 111 -42.5t54 -153.5q0 -68 -41 -132t-96.5 -110.5t-91.5 -58.5z" />
    <glyph glyph-name="quotedblleft" unicode="&#x201c;" horiz-adv-x="909" 
d="M319 1382l19 -39q-89 -57 -128.5 -117t-39.5 -100q0 -12 9 -20t20 -8q2 0 18 4q12 4 31 4q50 0 88.5 -23t38.5 -79q0 -60 -37.5 -89.5t-81.5 -29.5q-56 0 -111 43t-55 153q0 65 41.5 131t96.5 112t91 58zM795 1382l18 -39q-89 -57 -128.5 -117t-39.5 -100q0 -12 9 -20
t20 -8q2 0 18 4q12 4 31 4q50 0 88.5 -23t38.5 -79q0 -60 -37.5 -89.5t-81.5 -29.5q-56 0 -111 43t-55 153q0 66 42 131.5t97 111.5t91 58z" />
    <glyph glyph-name="quotedblright" unicode="&#x201d;" horiz-adv-x="909" 
d="M119 887l-19 39q89 56 128.5 116.5t39.5 100.5q0 13 -8 20.5t-20 7.5q-3 0 -19 -4q-12 -4 -31 -4q-50 0 -88.5 23.5t-38.5 79.5q0 61 36.5 89.5t82.5 28.5q31 0 69.5 -15.5t67.5 -59.5t29 -121q0 -65 -41.5 -131t-96.5 -112t-91 -58zM594 887l-19 39q89 56 128.5 116.5
t39.5 100.5q0 13 -8 20.5t-20 7.5q-1 0 -19 -4q-12 -4 -30 -4q-51 0 -89 23.5t-38 79.5q0 61 35.5 89.5t82.5 28.5q58 0 112 -42.5t54 -153.5q0 -65 -41.5 -131t-96.5 -112t-91 -58z" />
    <glyph glyph-name="bullet" unicode="&#x2022;" horiz-adv-x="717" 
d="M635 678q0 -73 -37 -137.5t-101 -102t-139 -37.5q-73 0 -137.5 37t-101.5 101.5t-37 138.5q0 76 36.5 139t101 100t138.5 37t138.5 -37t101.5 -101.5t37 -137.5z" />
    <glyph glyph-name="emdash" unicode="&#x2013;" 
d="M0 512h1024v-100h-1024v100z" />
    <glyph glyph-name="endash" unicode="&#x2014;" horiz-adv-x="2048" 
d="M0 512h2048v-100h-2048v100z" />
    <glyph glyph-name="tilde" unicode="&#x2dc;" horiz-adv-x="682" 
d="M618 1307h60q-23 -89 -67 -153t-148 -64q-45 0 -74 9.5t-92 39.5l-47 22q-44 23 -76 23q-51 0 -73 -24.5t-40 -69.5h-59q14 81 68 143.5t147 62.5q64 0 135 -36l49 -25q65 -31 99 -31q43 0 68 21.5t50 81.5z" />
    <glyph glyph-name="trademark" unicode="&#x2122;" horiz-adv-x="2007" 
d="M487 1315v-635q0 -54 4.5 -72t23.5 -25t75 -14v-41h-350v41q54 6 73.5 13.5t24 25.5t4.5 72v635h-100q-59 0 -91 -37t-49 -102h-41v180h707v-180h-41q-15 64 -46.5 101.5t-90.5 37.5h-103zM1362 524l-305 627h-4v-449q0 -71 20 -98.5t88 -34.5v-41h-268v41q44 4 67 18
t31 41t8 74v510q-18 47 -57 75t-84 28v41h248l315 -633l328 633h211v-41q-66 -3 -90.5 -29.5t-24.5 -83.5v-522q0 -54 4.5 -72t23.5 -25t75 -14v-41h-349v41q57 7 73.5 13.5t22 25t5.5 72.5v475h-4l-312 -631h-22z" />
    <glyph glyph-name="scaron" unicode="&#x161;" horiz-adv-x="797" 
d="M645 643h-31q-30 144 -89 198t-138 54q-76 0 -116 -42t-40 -91q0 -92 88 -146l222 -131q86 -52 129 -104t43 -137q0 -124 -93.5 -194t-203.5 -70q-39 0 -64.5 4.5t-88.5 18t-85 13.5q-29 0 -45 -24h-27v319h33q17 -76 41 -136t78 -105t145 -45q66 0 116 34.5t50 114.5
q0 92 -106 152l-119 67q-62 36 -99 62t-70.5 61t-52 78.5t-18.5 97.5q0 61 31.5 118.5t97.5 94.5t158 37q56 0 117.5 -20.5t71.5 -20.5q19 0 34 23h23zM666 1339l-228 -292h-112l-228 292h62l221 -180l223 180h62z" />
    <glyph glyph-name="guilsinglright" unicode="&#x203a;" horiz-adv-x="682" 
d="M553 455l-64 -56q-171 -145 -335 -307q-25 -24 -33 -24q-21 0 -21 22q0 10 37.5 65.5t83.5 117t84.5 111.5t56.5 75q-17 23 -81.5 102.5t-87.5 110.5q-95 126 -95 157q0 23 23 23q5 0 33 -26t61 -59t76 -74.5t90 -84.5q28 -24 71.5 -62.5t72 -63.5t28.5 -27z" />
    <glyph glyph-name="oe" unicode="&#x153;" horiz-adv-x="1479" 
d="M1391 297l22 -12q-59 -132 -144 -218.5t-218 -86.5q-99 0 -163 48t-104 146q-58 -118 -139.5 -156t-152.5 -38q-104 0 -203.5 48t-163.5 154.5t-64 270.5q0 59 18 138t63 160t130 136t209 55q182 0 305 -156q38 50 67 79.5t79.5 53t122.5 23.5q60 0 134 -28.5
t132.5 -112.5t58.5 -234h-520q6 -166 57 -308t211 -142q86 0 148 53.5t115 126.5zM465 883q-49 0 -99.5 -27.5t-85 -98t-34.5 -182.5q0 -125 14 -240.5t68.5 -208.5t160.5 -93q114 0 163.5 100.5t49.5 288.5q0 89 -15 192t-68 186t-154 83zM858 629h328v55q0 80 -43 139.5
t-115 59.5q-106 0 -138 -82t-32 -172z" />
    <glyph glyph-name="dotlessi" horiz-adv-x="569" 
d="M33 0v31q69 3 102 14.5t46.5 47.5t13.5 116v475q0 80 -18.5 101.5t-53.5 21.5q-28 0 -82 -8v30l317 113l9 -6v-727q0 -75 9 -109t39 -49t103 -20v-31h-485z" />
    <glyph glyph-name="dotlessi" unicode="&#x131;" horiz-adv-x="569" 
d="M33 0v31q69 3 102 14.5t46.5 47.5t13.5 116v475q0 80 -18.5 101.5t-53.5 21.5q-28 0 -82 -8v30l317 113l9 -6v-727q0 -75 9 -109t39 -49t103 -20v-31h-485z" />
    <glyph glyph-name="zcaron" horiz-adv-x="909" 
d="M856 276l-29 -276h-772v31l545 829h-283q-69 0 -104 -20.5t-46.5 -54.5t-21.5 -105h-36l6 242h710v-31l-551 -830h283q106 0 155 21.5t68 64t39 138.5zM735 1331l-227 -293h-113l-227 293h61l222 -180l223 180h61z" />
    <glyph glyph-name="Ydieresis" horiz-adv-x="1479" 
d="M1440 1356v-39q-51 -6 -85 -20t-83.5 -64.5t-114.5 -149.5l-303 -462v-398q0 -56 8 -91t28.5 -55t60 -28t114.5 -10v-39h-627v39q100 1 143 20t53.5 59t10.5 128v356l-268 393q-101 149 -156.5 216t-88 84t-87.5 22v39h573v-39q-85 -4 -115 -14t-30 -50q0 -38 35 -88
l303 -454l293 463q29 46 29 75q0 43 -38.5 55.5t-103.5 12.5v39h449zM508 1573q0 34 26.5 68t71.5 34q42 0 72.5 -30.5t30.5 -71.5q0 -42 -30.5 -72.5t-72.5 -30.5q-46 0 -72 33t-26 70zM872 1573q0 34 26.5 68t72.5 34q20 0 38.5 -7.5t33.5 -22.5t22.5 -33.5t7.5 -38.5
q0 -41 -31 -72t-71 -31q-47 0 -73 33t-26 70z" />
    <glyph glyph-name="Ydieresis" unicode="&#x178;" horiz-adv-x="1479" 
d="M1440 1356v-39q-51 -6 -85 -20t-83.5 -64.5t-114.5 -149.5l-303 -462v-398q0 -56 8 -91t28.5 -55t60 -28t114.5 -10v-39h-627v39q100 1 143 20t53.5 59t10.5 128v356l-268 393q-101 149 -156.5 216t-88 84t-87.5 22v39h573v-39q-85 -4 -115 -14t-30 -50q0 -38 35 -88
l303 -454l293 463q29 46 29 75q0 43 -38.5 55.5t-103.5 12.5v39h449zM508 1573q0 34 26.5 68t71.5 34q42 0 72.5 -30.5t30.5 -71.5q0 -42 -30.5 -72.5t-72.5 -30.5q-46 0 -72 33t-26 70zM872 1573q0 34 26.5 68t72.5 34q20 0 38.5 -7.5t33.5 -22.5t22.5 -33.5t7.5 -38.5
q0 -41 -31 -72t-71 -31q-47 0 -73 33t-26 70z" />
    <glyph glyph-name="fl" unicode="&#xa0;" horiz-adv-x="1139" 
d="M66 856v66h145q1 199 62.5 304.5t138 139t143.5 33.5q74 0 141.5 -25.5t81.5 -25.5q17 0 79 25t69 26l10 -4v-1229q0 -53 8.5 -79t36 -39.5t86.5 -16.5v-31h-440v31q67 6 102 31t35 110v684h-385v-694q0 -76 34.5 -100t110.5 -31v-31h-458v31q63 6 88.5 15t39 45.5
t13.5 123.5v641h-141zM764 922v288q-14 -14 -31 -14q-41 0 -64.5 18.5t-47 54.5t-45 55t-62.5 19q-81 0 -107 -87t-28 -238v-96h385z" />
    <glyph glyph-name="exclamdown" unicode="&#xa1;" horiz-adv-x="682" 
d="M295 578h27l18 -222q6 -71 41 -326.5t35 -303.5q0 -71 -24.5 -121.5t-82.5 -50.5q-110 0 -110 165q0 48 4 74zM307 956q44 0 78.5 -26.5t34.5 -77.5q0 -29 -15 -54.5t-41 -41t-57 -15.5q-43 0 -75.5 31.5t-32.5 79.5q0 53 34 78.5t74 25.5z" />
    <glyph glyph-name="cent" unicode="&#xa2;" 
d="M825 1186l-96 -277q68 -22 111 -70.5t43 -101.5q0 -39 -24 -65.5t-60 -26.5q-29 0 -50.5 11t-38.5 34.5t-34 61.5l-207 -596q65 -25 117 -25q63 0 113.5 21t96.5 65t95 119l27 -17q-76 -167 -171 -252t-225 -85q-43 0 -110 18l-101 -283h-69l104 308q-99 50 -152 131.5
t-69 156t-16 127.5q0 158 66 271.5t170 172t214 58.5q40 0 105 -10l90 254h71zM406 201l235 661q-51 19 -98 19q-103 0 -190 -83t-87 -266q0 -69 15.5 -131t46.5 -112t78 -88z" />
    <glyph glyph-name="sterling" unicode="&#xa3;" 
d="M705 764v-92h-250l2 -56q0 -90 -6.5 -142t-42.5 -247q158 -71 307 -71q81 0 132 27.5t91 66.5t53 39t13 -10q0 -14 -12.5 -47t-36.5 -74t-60 -76q-99 -96 -240 -96q-34 0 -71.5 9.5t-73 26.5t-67.5 37t-78 52q-55 -65 -97 -96t-106 -31q-55 0 -96 31.5t-41 93.5
q0 74 51.5 115.5t138.5 41.5q38 0 90 -10q6 18 6 35q0 63 -43 381h-221v92h219q-14 75 -14 137q0 238 113 360.5t286 122.5q81 0 142 -27t93 -70t32 -93t-30.5 -79.5t-70.5 -29.5q-37 0 -55.5 19t-22.5 46.5t-4 72.5q0 69 -36.5 87.5t-77.5 18.5q-115 0 -155 -91t-40 -187
q0 -73 4 -116t19 -171h256zM160 41q64 0 97.5 43.5t33.5 73.5q0 13 -39 24t-78 11q-44 0 -70 -20t-26 -58q0 -32 24 -53t58 -21z" />
    <glyph glyph-name="currency" unicode="&#xa4;" 
d="M514 985q-62 0 -118.5 -24.5t-98 -67.5t-64 -98t-22.5 -117q0 -84 40 -155.5t109.5 -113.5t153.5 -42q83 0 152.5 42.5t108 114t38.5 154.5q0 82 -39 152.5t-108 112.5t-152 42zM-45 221l201 197q-84 108 -84 260q0 74 23.5 141t60.5 115l-201 201l102 98l197 -197
q116 80 260 80q46 0 94 -9.5t89 -27.5t73 -43l201 197l98 -98l-197 -201q24 -31 42 -71.5t28 -90t10 -94.5q0 -148 -80 -260l197 -197l-98 -102l-201 200q-104 -83 -256 -83q-49 0 -96.5 10.5t-89.5 29.5t-74 43l-197 -200z" />
    <glyph glyph-name="yen" unicode="&#xa5;" 
d="M727 39v-39h-500v39q74 2 107.5 20.5t44 61t10.5 125.5v127h-356v82h356v155l-14 29h-342v82h295l-195 354q-54 98 -85.5 145t-68 71.5t-88.5 25.5v39h498v-39q-133 0 -133 -62q0 -41 27 -90l241 -452l230 450q28 54 28 90q0 64 -133 64v39h400v-39q-73 -13 -132 -65.5
t-110 -153.5l-189 -377h300v-82h-340l-15 -29v-155h355v-82h-355v-150q0 -76 16.5 -115t50 -53t97.5 -16z" />
    <glyph glyph-name="brokenbar" unicode="&#xa6;" horiz-adv-x="410" 
d="M137 -29v566h135v-566h-135zM137 819v565h135v-565h-135z" />
    <glyph glyph-name="section" unicode="&#xa7;" 
d="M143 578q0 70 30.5 127t93.5 89.5t153 32.5l4 4q-75 63 -113 101.5t-62 88t-24 114.5q0 121 84.5 185t206.5 64q65 0 124.5 -25t95.5 -70.5t36 -102.5q0 -50 -26 -80.5t-78 -30.5q-51 0 -74 29t-23 59q0 28 15 50t35 39.5t20 21.5q0 29 -34.5 48t-104.5 19
q-82 0 -122 -48t-40 -95q0 -89 70 -147l280 -232q50 -41 92 -91.5t66 -107t24 -114.5q0 -106 -66.5 -178t-199.5 -72l-4 -4q105 -88 147 -150.5t42 -146.5q0 -68 -32.5 -126.5t-98 -95t-160.5 -36.5q-123 0 -205 58t-82 147q0 52 33 81t78 29q47 0 72.5 -26.5t25.5 -57.5
q0 -30 -14 -49t-35 -38t-21 -29q0 -22 38.5 -47t113.5 -25q76 0 124 43.5t48 118.5q0 35 -10 60.5t-42 59t-97 86t-183 142.5q-103 79 -152 163.5t-49 164.5zM393 784q-54 0 -97.5 -34t-43.5 -101q0 -55 23.5 -93t70.5 -87q73 -73 141.5 -121.5t133.5 -48.5q60 0 102.5 38.5
t42.5 104.5q0 44 -41 102.5t-101 113t-125 90.5t-106 36z" />
    <glyph glyph-name="dieresis" unicode="&#xa8;" horiz-adv-x="682" 
d="M37 1174q0 35 26 68.5t72 33.5q40 0 71.5 -30.5t31.5 -71.5q0 -44 -30.5 -73.5t-72.5 -29.5q-46 0 -72 33t-26 70zM444 1174q0 35 26 68.5t73 33.5q20 0 38.5 -7.5t33.5 -22.5t22.5 -33.5t7.5 -38.5q0 -43 -30 -73t-72 -30q-47 0 -73 33t-26 70z" />
    <glyph glyph-name="copyright" unicode="&#xa9;" horiz-adv-x="1556" 
d="M782 1384q145 0 272 -54t224 -153t149 -227.5t52 -273.5q0 -191 -92.5 -354t-253 -257t-351.5 -94q-143 0 -272 53.5t-227.5 152t-151.5 227t-53 272.5q0 191 93 354.5t255 258.5t356 95zM782 1298q-162 0 -298.5 -86t-215 -230t-78.5 -306q0 -161 79.5 -305t215.5 -229
t297 -85q158 0 292 85.5t213 229t79 304.5q0 123 -44.5 236.5t-124.5 200.5t-187 136t-228 49zM1087 506h33l-33 -144q0 -15 -11.5 -22t-41.5 -16q-105 -35 -215 -35q-190 0 -310 100.5t-120 304.5q0 68 27 137.5t82.5 129t139.5 94.5t196 35q71 0 109.5 -9t100.5 -30
q43 -12 43 -41v-144h-34q-5 48 -29 89t-73.5 67.5t-123.5 26.5q-137 0 -207.5 -95.5t-72.5 -251.5q0 -111 30.5 -194.5t96 -130.5t166.5 -47q172 0 247 176z" />
    <glyph glyph-name="ordfeminine" unicode="&#xaa;" horiz-adv-x="565" 
d="M324 971v157q-187 -60 -187 -129q0 -44 22 -70t60 -26q36 0 82 23q19 16 23 45zM553 905v-37q-57 -61 -119 -61q-32 0 -58.5 17t-35.5 73q-90 -90 -184 -90q-60 0 -104 36.5t-44 100.5q0 84 68 127.5t246 108.5v61q0 39 -18.5 62.5t-53.5 23.5t-64.5 -14t-29.5 -31
q1 -7 2 -15t2 -13.5t1.5 -8.5t0.5 -8q0 -22 -19 -37.5t-47 -15.5t-45.5 20t-17.5 43q0 55 57.5 96t165.5 41q213 0 213 -196v-236q0 -41 4.5 -56t22.5 -15q29 0 57 24z" />
    <glyph glyph-name="guillemotleft" unicode="&#xab;" 
d="M86 465l64 55q192 166 335 307q25 25 33 25q21 0 21 -23q0 -31 -263 -368q23 -31 85 -106t85 -107q95 -126 95 -158q0 -22 -23 -22q-8 0 -101 93t-159 150q-19 16 -70.5 62t-76.5 68t-25 24zM479 465l64 55q200 174 336 307q24 25 32 25q21 0 21 -23q0 -11 -24.5 -47
t-96.5 -133t-97.5 -131t-43.5 -57q23 -31 91.5 -115t78.5 -98q29 -37 61.5 -88t32.5 -70q0 -22 -23 -22q-8 0 -101 93t-159 150q-19 16 -70.5 62t-76.5 68t-25 24z" />
    <glyph glyph-name="logicalnot" unicode="&#xac;" horiz-adv-x="1155" 
d="M958 221v434h-897v136h1033v-570h-136z" />
    <glyph glyph-name="minus" unicode="&#xad;" horiz-adv-x="1155" 
d="M1094 451h-1033v135h1033v-135z" />
    <glyph glyph-name="registered" unicode="&#xae;" horiz-adv-x="1556" 
d="M449 1034v31h362q64 0 117.5 -20.5t86 -62.5t32.5 -103q0 -79 -44.5 -135t-117.5 -80l116 -162q90 -123 156 -174v-17h-131q-21 0 -43 21t-48.5 62t-71 115.5t-85.5 133.5h-98v-203q0 -49 4.5 -65t25.5 -22.5t70 -10.5v-31h-331v31q49 4 70 10.5t25.5 22.5t4.5 65v494
q0 51 -4.5 67.5t-22.5 22t-73 10.5zM680 1026v-344h88q71 0 106 50t35 136q0 83 -39.5 120.5t-105.5 37.5h-84zM1479 676q0 -191 -92.5 -354t-253 -257t-351.5 -94q-143 0 -272 53.5t-227.5 152t-151.5 227t-53 272.5q0 191 93 354.5t255 258.5t356 95q145 0 272 -54
t224 -153t149 -227.5t52 -273.5zM1366 676q0 123 -44.5 236.5t-124.5 200.5t-187 136t-228 49q-162 0 -298.5 -86t-215 -230t-78.5 -306q0 -161 79.5 -305t215.5 -229t297 -85q158 0 292 85.5t213 229t79 304.5z" />
    <glyph glyph-name="macron" unicode="&#xaf;" horiz-adv-x="682" 
d="M23 1231h636v-111h-636v111z" />
    <glyph glyph-name="ring" unicode="&#xb0;" horiz-adv-x="682" 
d="M137 1251q0 84 58.5 144.5t144.5 60.5q56 0 103 -27.5t74.5 -74.5t27.5 -103q0 -83 -60.5 -142.5t-144.5 -59.5q-57 0 -103.5 27t-73 73.5t-26.5 101.5zM340 1386q-62 0 -97.5 -43.5t-35.5 -89.5t34 -90.5t97 -44.5q57 0 97 39t40 94q0 56 -38.5 95.5t-96.5 39.5z" />
    <glyph glyph-name="plusminus" unicode="&#xb1;" horiz-adv-x="1155" 
d="M61 0v135h1033v-135h-1033zM510 713v323h135v-323h449v-135h-449v-328h-135v328h-449v135h449z" />
    <glyph glyph-name="twosuperior" unicode="&#xb2;" horiz-adv-x="614" 
d="M606 727l-76 -174h-518v47l201 219q81 93 123.5 163t42.5 116q0 56 -38.5 106.5t-109.5 50.5q-119 0 -178 -143l-51 29q42 137 115.5 190t195.5 53q70 0 128.5 -27.5t92 -77.5t33.5 -116q0 -88 -50 -160.5t-122 -142.5l-176 -174h248q40 2 61 11t43 44z" />
    <glyph glyph-name="threesuperior" unicode="&#xb3;" horiz-adv-x="614" 
d="M193 942l-3 59q197 60 197 166q0 45 -28.5 74t-88.5 29q-65 0 -98.5 -28.5t-77.5 -88.5l-51 37q48 103 120 148.5t150 45.5q116 0 173 -53.5t57 -111.5q0 -48 -30 -88t-93 -84q176 -66 176 -242q0 -58 -41.5 -119.5t-135 -105t-233.5 -43.5q-49 0 -102 20.5t-53 83.5
q0 28 20 51t51 23q20 0 39 -10t49 -31t49 -30t42 -9q81 0 115 42.5t34 92.5q0 79 -49.5 126t-140.5 52z" />
    <glyph glyph-name="acute" unicode="&#xb4;" horiz-adv-x="682" 
d="M272 1038h-82l302 303q33 33 49 40.5t41 7.5q41 0 54 -22.5t13 -43.5q0 -49 -61 -86z" />
    <glyph glyph-name="mu" unicode="&#xb5;" 
d="M881 922v-734q0 -57 11.5 -95t53.5 -38t103 58v-17q-49 -68 -94.5 -92t-106.5 -24q-73 0 -107 53.5t-34 124.5h-5q-44 -79 -117.5 -128.5t-152.5 -49.5q-163 0 -239 143l-5 -4q7 -64 40.5 -197.5t33.5 -202.5q0 -165 -94 -165q-51 0 -72.5 43.5t-21.5 121.5
q0 62 24.5 192.5t24.5 199.5v811h180v-627q0 -88 46 -138.5t134 -50.5q72 0 134 42.5t83 87.5v686h181z" />
    <glyph glyph-name="paragraph" unicode="&#xb6;" horiz-adv-x="928" 
d="M487 1311v-1626h-315v45q88 5 124.5 23.5t46 58t9.5 125.5v622q-198 0 -297.5 107t-99.5 305q0 100 24 173.5t76 120.5t132.5 69t195.5 22h539v-39q-79 -6 -117 -21.5t-51 -52t-13 -110.5v-1219q0 -56 6 -87t24.5 -52t53 -30.5t97.5 -14.5v-45h-316v1626h-119zM352 604
v707q-87 -6 -138.5 -35t-77 -100.5t-25.5 -206.5q0 -188 61.5 -272.5t179.5 -92.5z" />
    <glyph glyph-name="periodcentered" unicode="&#xb7;" horiz-adv-x="512" 
d="M256 408q-40 0 -76.5 29.5t-36.5 80.5q0 49 33 83t80 34t81 -34t34 -83q0 -51 -38.5 -80.5t-76.5 -29.5z" />
    <glyph glyph-name="periodcentered" unicode="&#x2219;" horiz-adv-x="512" 
d="M256 408q-40 0 -76.5 29.5t-36.5 80.5q0 49 33 83t80 34t81 -34t34 -83q0 -51 -38.5 -80.5t-76.5 -29.5z" />
    <glyph glyph-name="cedilla" unicode="&#xb8;" horiz-adv-x="682" 
d="M201 -203l84 203h71l-51 -133q28 6 57 6q53 0 92 -16.5t60 -48t21 -78.5q0 -70 -63 -120t-185 -50q-67 0 -104.5 8.5t-76.5 23.5l29 64q22 -9 68.5 -17t58.5 -8q119 0 119 93q0 71 -92 71q-53 0 -74 -8z" />
    <glyph glyph-name="onesuperior" unicode="&#xb9;" horiz-adv-x="614" 
d="M508 602v-49h-391v49q56 4 82 15t26 51v526q0 57 -14 57q-16 0 -90 -26v47l241 112l29 -6v-702q0 -41 27.5 -56t89.5 -18z" />
    <glyph glyph-name="degree" unicode="&#xba;" horiz-adv-x="819" 
d="M410 868q56 0 105.5 30.5t78.5 82.5t29 111q0 60 -29 111t-78.5 81.5t-105.5 30.5t-106 -30.5t-78.5 -81.5t-28.5 -111q0 -59 28.5 -111t78.5 -82.5t106 -30.5zM410 799q-81 0 -148 39t-106 106t-39 148q0 79 39.5 147t106 106.5t147.5 38.5q79 0 146.5 -39t106.5 -106.5
t39 -146.5q0 -81 -38.5 -147.5t-106.5 -106t-147 -39.5z" />
    <glyph glyph-name="guillemotright" unicode="&#xbb;" 
d="M938 455l-64 -56q-171 -145 -335 -307q-25 -24 -33 -24q-21 0 -21 22q0 10 37.5 65.5t83.5 117t77.5 102.5t64.5 84q-15 20 -81 101t-89 112q-95 126 -95 157q0 23 23 23q5 0 33 -26t61 -59t76 -74.5t90 -84.5q28 -24 71.5 -62.5t72 -63.5t28.5 -27zM545 455l-64 -56
q-67 -57 -163.5 -144.5t-172.5 -162.5q-24 -24 -32 -24q-21 0 -21 22q0 10 37.5 65.5t83.5 117t84.5 111.5t56.5 75q-10 14 -78.5 98t-91.5 115q-94 124 -94 157q0 23 23 23q5 0 33 -26t61 -59t76 -74.5t90 -84.5q28 -24 71.5 -62.5t72 -63.5t28.5 -27z" />
    <glyph glyph-name="onequarter" unicode="&#xbc;" horiz-adv-x="1536" 
d="M1470 301v-117h-112v-184h-144v184h-368v101l416 544h96v-528h112zM1214 301v361h-4l-272 -361h276zM1305 1384l-922 -1413h-100l927 1413h95zM467 602v-49h-391v49q56 4 82 15t26 51v526q0 57 -14 57q-16 0 -90 -26v47l242 112l28 -6v-702q0 -41 27.5 -56t89.5 -18z" />
    <glyph glyph-name="onehalf" unicode="&#xbd;" horiz-adv-x="1536" 
d="M1229 1384l-922 -1413h-100l928 1413h94zM455 602v-49h-392v49q56 4 82.5 15t26.5 51v526q0 57 -14 57q-17 0 -90 -26v47l241 112l29 -6v-702q0 -41 27.5 -56t89.5 -18zM1528 174l-76 -174h-518v47l201 219q77 87 121 160.5t44 118.5q0 56 -38.5 106.5t-108.5 50.5
q-119 0 -178 -143l-51 29q27 91 70 145.5t102 76t139 21.5q107 0 180.5 -60t73.5 -161q0 -89 -50 -161t-122 -142l-176 -174h248q40 2 61 11t43 44z" />
    <glyph glyph-name="threequarters" unicode="&#xbe;" horiz-adv-x="1536" 
d="M1470 301v-117h-112v-184h-144v184h-368v101l416 544h96v-528h112zM1214 301v361h-4l-272 -361h276zM1305 1384l-922 -1413h-100l927 1413h95zM193 942l-3 59q197 60 197 166q0 45 -28.5 74t-88.5 29q-65 0 -98.5 -28.5t-77.5 -88.5l-51 37q48 103 120 148.5t150 45.5
q116 0 173 -53.5t57 -111.5q0 -48 -30 -88t-93 -84q176 -66 176 -242q0 -58 -41.5 -119.5t-135 -105t-233.5 -43.5q-49 0 -102 20.5t-53 83.5q0 28 20 51t51 23q20 0 39 -10t49 -31t49 -30t42 -9q81 0 115 42.5t34 92.5q0 79 -49.5 126t-140.5 52z" />
    <glyph glyph-name="questiondown" unicode="&#xbf;" horiz-adv-x="909" 
d="M410 602h34q0 -59 -11 -116t-26 -104.5t-24 -70.5l-57 -131q-28 -64 -52 -155.5t-24 -149.5q0 -102 57.5 -181t167.5 -79q68 0 129.5 38t61.5 87q0 18 -8.5 32t-29.5 38t-30.5 42t-9.5 42q0 30 20 56.5t60 26.5q102 0 102 -129q0 -97 -51.5 -163.5t-129 -98.5t-153.5 -32
q-83 0 -172 36t-129 82q-43 54 -58.5 99.5t-15.5 122.5q0 72 48 160.5t106 158.5q91 105 133.5 186t61.5 203zM424 954q44 0 78.5 -26.5t34.5 -77.5q0 -27 -15.5 -54t-41.5 -42t-56 -15q-44 0 -76.5 32.5t-32.5 78.5q0 52 34 78t75 26z" />
    <glyph glyph-name="Agrave" unicode="&#xc0;" horiz-adv-x="1479" 
d="M1446 39v-39h-522v39q70 0 106.5 14t36.5 64q0 35 -39 129l-84 196h-536l-95 -239q-16 -43 -16 -78q0 -55 41.5 -70.5t97.5 -15.5v-39h-405v39q65 4 104 45q45 49 150 291l426 1005h41l510 -1163q36 -81 58.5 -114.5t50.5 -47t75 -16.5zM442 526h473l-237 564zM860 1479
h-72l-280 182q-51 34 -51 76q0 15 10 35t45 20q23 0 35.5 -6.5t42.5 -34.5z" />
    <glyph glyph-name="Aacute" unicode="&#xc1;" horiz-adv-x="1479" 
d="M1446 39v-39h-522v39q70 0 106.5 14t36.5 64q0 35 -39 129l-84 196h-536l-95 -239q-16 -43 -16 -78q0 -55 41.5 -70.5t97.5 -15.5v-39h-405v39q65 4 104 45q45 49 150 291l426 1005h41l510 -1163q36 -81 58.5 -114.5t50.5 -47t75 -16.5zM442 526h473l-237 564zM633 1487
h-66l269 268q28 28 42 34.5t35 6.5q37 0 47.5 -20t10.5 -37q0 -45 -56 -74z" />
    <glyph glyph-name="Acircumflex" unicode="&#xc2;" horiz-adv-x="1479" 
d="M1446 39v-39h-522v39q70 0 106.5 14t36.5 64q0 35 -39 129l-84 196h-536l-95 -239q-16 -43 -16 -78q0 -55 41.5 -70.5t97.5 -15.5v-39h-405v39q65 4 104 45q45 49 150 291l426 1005h41l510 -1163q36 -81 58.5 -114.5t50.5 -47t75 -16.5zM442 526h473l-237 564zM1008 1458
h-64l-223 180l-221 -180h-62l228 293h112z" />
    <glyph glyph-name="Atilde" unicode="&#xc3;" horiz-adv-x="1479" 
d="M1446 39v-39h-522v39q70 0 106.5 14t36.5 64q0 35 -39 129l-84 196h-536l-95 -239q-16 -43 -16 -78q0 -55 41.5 -70.5t97.5 -15.5v-39h-405v39q65 4 104 45q45 49 150 291l426 1005h41l510 -1163q36 -81 58.5 -114.5t50.5 -47t75 -16.5zM442 526h473l-237 564zM981 1681
h53q-21 -82 -60 -138t-132 -56q-35 0 -60.5 8t-85.5 35l-41 18q-35 19 -63 19q-47 0 -66.5 -24t-31.5 -60h-54q15 74 62 129t131 55q56 0 117 -31l43 -20q54 -27 84 -27q37 0 59.5 19.5t44.5 72.5z" />
    <glyph glyph-name="Adieresis" unicode="&#xc4;" horiz-adv-x="1479" 
d="M1446 39v-39h-522v39q70 0 106.5 14t36.5 64q0 35 -39 129l-84 196h-536l-95 -239q-16 -43 -16 -78q0 -55 41.5 -70.5t97.5 -15.5v-39h-405v39q65 4 104 45q45 49 150 291l426 1005h41l510 -1163q36 -81 58.5 -114.5t50.5 -47t75 -16.5zM442 526h473l-237 564zM444 1591
q0 34 26 68.5t73 34.5q41 0 71.5 -30.5t30.5 -72.5t-30 -72t-72 -30q-49 0 -74 32.5t-25 69.5zM809 1591q0 34 26 68.5t72 34.5q43 0 73 -30t30 -73t-29.5 -72.5t-73.5 -29.5q-48 0 -73 32.5t-25 69.5z" />
    <glyph glyph-name="Aring" unicode="&#xc5;" horiz-adv-x="1479" 
d="M1446 39v-39h-522v39q70 0 106.5 14t36.5 64q0 35 -39 129l-84 196h-536l-95 -239q-16 -43 -16 -78q0 -55 41.5 -70.5t97.5 -15.5v-39h-405v39q65 4 104 45q45 49 150 291l426 1005h41l510 -1163q36 -81 58.5 -114.5t50.5 -47t75 -16.5zM442 526h473l-237 564zM537 1642
q0 50 23.5 92t64.5 66.5t92 24.5q49 0 91.5 -25t66.5 -66.5t24 -91.5q0 -49 -24.5 -90.5t-67 -65.5t-90.5 -24q-51 0 -92 24t-64.5 65.5t-23.5 90.5zM715 1765h-2q-53 -1 -85 -41.5t-32 -78.5q0 -42 30.5 -80.5t86.5 -38.5q52 0 87.5 34t35.5 85t-35.5 85.5t-85.5 34.5z" />
    <glyph glyph-name="AE" unicode="&#xc6;" horiz-adv-x="1821" 
d="M1671 1067h-47q-7 73 -29.5 117.5t-63.5 65.5t-105 26.5t-175 5.5h-178q-25 0 -40 -11t-15 -50v-471h227q112 0 167.5 18.5t76.5 61t27 118.5h43v-479h-43q-11 105 -46 155t-155 50h-297v-488q0 -36 3.5 -58.5t17 -33t42.5 -13.5t78 -3h156q110 0 176.5 20t116.5 75
t110 171h49l-90 -344h-1044v39l35 4q63 8 92 22t42 49.5t13 106.5v311h-360q-56 -105 -96.5 -186.5t-66.5 -146t-26 -95.5q0 -25 27.5 -39.5t55 -18t59.5 -7.5v-39h-408v39q62 10 97 36t83 124l502 991q18 36 18 53q0 72 -184 72v41h1155v-289zM489 612h326v641h-6z" />
    <glyph glyph-name="Ccedilla" unicode="&#xc7;" horiz-adv-x="1366" 
d="M1270 924h-47q-20 84 -57.5 152t-94 119t-131 79.5t-168.5 28.5q-80 0 -162.5 -32.5t-144.5 -92.5q-74 -73 -122 -190t-48 -314q0 -205 69.5 -344t183.5 -204t249 -65q115 0 207 36t147 77.5t109 93.5l36 -37q0 -5 -39 -47.5t-108.5 -91.5t-174 -85t-233.5 -36
q-174 0 -330.5 73.5t-255 233.5t-98.5 400q0 165 57.5 299t156 224t223 136.5t260.5 46.5q81 0 144.5 -13t131 -33.5t84.5 -20.5q78 0 94 67h43zM485 -203l78 187h64l-45 -119q16 2 49 2q72 0 111.5 -32.5t39.5 -94.5q0 -61 -56 -105.5t-165 -44.5q-56 0 -88.5 7.5
t-71.5 21.5l25 55q24 -9 60 -14.5t53 -5.5q104 0 104 80q0 61 -82 61q-45 0 -63 -6z" />
    <glyph glyph-name="Egrave" unicode="&#xc8;" horiz-adv-x="1251" 
d="M1223 346l-93 -346h-1105v39q72 5 108.5 18t53 50.5t16.5 115.5v910q0 80 -17 116.5t-53.5 49.5t-107.5 18v39h1087l6 -293h-51q-15 92 -44.5 137.5t-89.5 61.5t-177 16h-277q-38 0 -52.5 -10.5t-14.5 -59.5v-454h315q69 0 109 10t62 31.5t34 59t20 93.5h47v-475h-47
q-13 85 -32.5 125t-60 54t-132.5 16l-315 4v-508q0 -47 14 -62.5t68 -19.5t223 -4q98 0 167 13t119.5 43.5t89.5 82.5t72 129h58zM766 1454h-72l-280 182q-52 37 -52 76q0 15 10 35t46 20q22 0 35 -6.5t43 -34.5z" />
    <glyph glyph-name="Eacute" unicode="&#xc9;" horiz-adv-x="1251" 
d="M1223 346l-93 -346h-1105v39q72 5 108.5 18t53 50.5t16.5 115.5v910q0 80 -17 116.5t-53.5 49.5t-107.5 18v39h1087l6 -293h-51q-15 92 -44.5 137.5t-89.5 61.5t-177 16h-277q-38 0 -52.5 -10.5t-14.5 -59.5v-454h315q69 0 109 10t62 31.5t34 59t20 93.5h47v-475h-47
q-13 85 -32.5 125t-60 54t-132.5 16l-315 4v-508q0 -47 14 -62.5t68 -19.5t223 -4q98 0 167 13t119.5 43.5t89.5 82.5t72 129h58zM600 1462h-65l268 269q28 28 42 34.5t36 6.5q36 0 46.5 -20t10.5 -38q0 -27 -14.5 -42t-40.5 -32z" />
    <glyph glyph-name="Ecircumflex" unicode="&#xca;" horiz-adv-x="1251" 
d="M1223 346l-93 -346h-1105v39q72 5 108.5 18t53 50.5t16.5 115.5v910q0 80 -17 116.5t-53.5 49.5t-107.5 18v39h1087l6 -293h-51q-15 92 -44.5 137.5t-89.5 61.5t-177 16h-277q-38 0 -52.5 -10.5t-14.5 -59.5v-454h315q69 0 109 10t62 31.5t34 59t20 93.5h47v-475h-47
q-13 85 -32.5 125t-60 54t-132.5 16l-315 4v-508q0 -47 14 -62.5t68 -19.5t223 -4q98 0 167 13t119.5 43.5t89.5 82.5t72 129h58zM905 1444h-63l-224 180l-221 -180h-61l227 293h113z" />
    <glyph glyph-name="Edieresis" unicode="&#xcb;" horiz-adv-x="1251" 
d="M1223 346l-93 -346h-1105v39q72 5 108.5 18t53 50.5t16.5 115.5v910q0 80 -17 116.5t-53.5 49.5t-107.5 18v39h1087l6 -293h-51q-15 92 -44.5 137.5t-89.5 61.5t-177 16h-277q-38 0 -52.5 -10.5t-14.5 -59.5v-454h315q69 0 109 10t62 31.5t34 59t20 93.5h47v-475h-47
q-13 85 -32.5 125t-60 54t-132.5 16l-315 4v-508q0 -47 14 -62.5t68 -19.5t223 -4q98 0 167 13t119.5 43.5t89.5 82.5t72 129h58zM342 1567q0 34 26.5 68t71.5 34q42 0 72.5 -30.5t30.5 -71.5q0 -44 -29.5 -73.5t-73.5 -29.5q-46 0 -72 33t-26 70zM707 1567q0 34 26.5 68
t71.5 34q20 0 38.5 -7.5t33.5 -22.5t22.5 -33.5t7.5 -38.5q0 -43 -30 -73t-72 -30q-46 0 -72 33t-26 70z" />
    <glyph glyph-name="Igrave" unicode="&#xcc;" horiz-adv-x="682" 
d="M37 0v39q87 1 129 17t56 53.5t14 113.5v910q0 79 -14.5 115.5t-54 50t-130.5 18.5v39h608v-39q-83 -3 -123.5 -15.5t-59 -50.5t-18.5 -118v-910q0 -60 10.5 -95t33.5 -54t59 -26t98 -9v-39h-608zM575 1454h-71l-281 182q-51 38 -51 76q0 15 10 35t45 20q23 0 35.5 -6.5
t42.5 -34.5z" />
    <glyph glyph-name="Iacute" unicode="&#xcd;" horiz-adv-x="682" 
d="M37 0v39q87 1 129 17t56 53.5t14 113.5v910q0 79 -14.5 115.5t-54 50t-130.5 18.5v39h608v-39q-83 -3 -123.5 -15.5t-59 -50.5t-18.5 -118v-910q0 -60 10.5 -95t33.5 -54t59 -26t98 -9v-39h-608zM225 1473h-65l268 268q28 28 42 34.5t36 6.5q36 0 46.5 -20t10.5 -38
q0 -42 -55 -73z" />
    <glyph glyph-name="Icircumflex" unicode="&#xce;" horiz-adv-x="682" 
d="M37 0v39q87 1 129 17t56 53.5t14 113.5v910q0 79 -14.5 115.5t-54 50t-130.5 18.5v39h608v-39q-83 -3 -123.5 -15.5t-59 -50.5t-18.5 -118v-910q0 -60 10.5 -95t33.5 -54t59 -26t98 -9v-39h-608zM633 1466h-64l-223 181l-221 -181h-62l228 293h112z" />
    <glyph glyph-name="Idieresis" unicode="&#xcf;" horiz-adv-x="682" 
d="M37 0v39q87 1 129 17t56 53.5t14 113.5v910q0 79 -14.5 115.5t-54 50t-130.5 18.5v39h608v-39q-83 -3 -123.5 -15.5t-59 -50.5t-18.5 -118v-910q0 -60 10.5 -95t33.5 -54t59 -26t98 -9v-39h-608zM57 1575q0 34 26.5 68t72.5 34q20 0 38.5 -7.5t33.5 -22.5t22.5 -33.5
t7.5 -38.5q0 -42 -30 -72t-72 -30q-49 0 -74 32.5t-25 69.5zM422 1575q0 34 26.5 68t71.5 34q40 0 71.5 -30.5t31.5 -71.5q0 -43 -30.5 -72.5t-72.5 -29.5q-48 0 -73 32.5t-25 69.5z" />
    <glyph glyph-name="Eth" unicode="&#xd0;" horiz-adv-x="1479" 
d="M33 1317v39h553q186 0 337 -42.5t258.5 -127t164.5 -213.5t57 -299q0 -114 -38.5 -230.5t-127.5 -217t-244 -163.5t-379 -63h-581v39q81 5 117.5 20.5t49.5 52.5t13 111v422h-170v90h170v398q0 77 -12.5 113.5t-49 50.5t-118.5 20zM721 735v-90h-299v-485q0 -52 24.5 -68
t98.5 -16q89 0 182.5 14t199 69t179.5 179.5t74 333.5q0 293 -191 465q-82 73 -186 108t-285 35q-64 0 -80 -19.5t-16 -60.5v-465h299z" />
    <glyph glyph-name="Ntilde" unicode="&#xd1;" horiz-adv-x="1479" 
d="M1448 1356v-39q-51 -5 -87 -14.5t-59.5 -33t-36 -74.5t-12.5 -140v-1078h-34l-902 1123h-4v-799q0 -106 17 -161t56.5 -76.5t119.5 -24.5v-39h-481v39q82 5 123 25t58 73t17 164v903q-60 74 -96.5 93.5t-101.5 19.5v39h350l784 -985h4v684q0 116 -19.5 169.5t-58.5 70.5
t-118 22v39h481zM979 1661h53q-20 -82 -59.5 -138.5t-132.5 -56.5q-35 0 -60.5 8t-85.5 35l-41 19q-36 18 -63 18q-46 0 -66.5 -24t-31.5 -60h-54q15 74 62 129.5t131 55.5q53 0 117 -31l43 -21q52 -26 83 -26q38 0 60.5 19t44.5 73z" />
    <glyph glyph-name="Ograve" unicode="&#xd2;" horiz-adv-x="1479" 
d="M739 -29q-184 0 -337.5 86t-242.5 246.5t-89 372.5q0 169 55.5 304t150 224t215 134.5t248.5 45.5q127 0 249.5 -46t215.5 -134t149 -223.5t56 -304.5q0 -212 -88.5 -372.5t-243 -246.5t-338.5 -86zM739 45q119 0 218.5 66.5t159 209t59.5 357.5q0 323 -128.5 478
t-308.5 155q-179 0 -307.5 -155t-128.5 -478q0 -162 34.5 -283t97 -199.5t140 -114.5t164.5 -36zM975 1483h-72l-280 182q-52 35 -52 76q0 15 10 35t46 20q22 0 33.5 -5.5t44.5 -35.5z" />
    <glyph glyph-name="Oacute" unicode="&#xd3;" horiz-adv-x="1479" 
d="M739 -29q-184 0 -337.5 86t-242.5 246.5t-89 372.5q0 169 55.5 304t150 224t215 134.5t248.5 45.5q127 0 249.5 -46t215.5 -134t149 -223.5t56 -304.5q0 -212 -88.5 -372.5t-243 -246.5t-338.5 -86zM739 45q119 0 218.5 66.5t159 209t59.5 357.5q0 323 -128.5 478
t-308.5 155q-179 0 -307.5 -155t-128.5 -478q0 -162 34.5 -283t97 -199.5t140 -114.5t164.5 -36zM707 1501h-66l268 268q28 28 42.5 34.5t35.5 6.5q36 0 46.5 -20t10.5 -37q0 -42 -55 -74z" />
    <glyph glyph-name="Ocircumflex" unicode="&#xd4;" horiz-adv-x="1479" 
d="M739 -29q-184 0 -337.5 86t-242.5 246.5t-89 372.5q0 169 55.5 304t150 224t215 134.5t248.5 45.5q127 0 249.5 -46t215.5 -134t149 -223.5t56 -304.5q0 -212 -88.5 -372.5t-243 -246.5t-338.5 -86zM739 45q119 0 218.5 66.5t159 209t59.5 357.5q0 323 -128.5 478
t-308.5 155q-179 0 -307.5 -155t-128.5 -478q0 -162 34.5 -283t97 -199.5t140 -114.5t164.5 -36zM1026 1458h-63l-224 180l-221 -180h-61l227 293h113z" />
    <glyph glyph-name="Otilde" unicode="&#xd5;" horiz-adv-x="1479" 
d="M739 -29q-184 0 -337.5 86t-242.5 246.5t-89 372.5q0 169 55.5 304t150 224t215 134.5t248.5 45.5q127 0 249.5 -46t215.5 -134t149 -223.5t56 -304.5q0 -212 -88.5 -372.5t-243 -246.5t-338.5 -86zM739 45q119 0 218.5 66.5t159 209t59.5 357.5q0 323 -128.5 478
t-308.5 155q-179 0 -307.5 -155t-128.5 -478q0 -162 34.5 -283t97 -199.5t140 -114.5t164.5 -36zM983 1686h53q-20 -82 -59.5 -138.5t-132.5 -56.5q-35 0 -60.5 8t-85.5 35l-41 18q-35 19 -63 19q-46 0 -66.5 -24t-31.5 -60h-54q15 74 62 129t131 55q56 0 117 -31l43 -20
q54 -27 84 -27q37 0 59.5 19.5t44.5 73.5z" />
    <glyph glyph-name="Odieresis" unicode="&#xd6;" horiz-adv-x="1479" 
d="M739 -29q-184 0 -337.5 86t-242.5 246.5t-89 372.5q0 169 55.5 304t150 224t215 134.5t248.5 45.5q127 0 249.5 -46t215.5 -134t149 -223.5t56 -304.5q0 -212 -88.5 -372.5t-243 -246.5t-338.5 -86zM739 45q119 0 218.5 66.5t159 209t59.5 357.5q0 323 -128.5 478
t-308.5 155q-179 0 -307.5 -155t-128.5 -478q0 -162 34.5 -283t97 -199.5t140 -114.5t164.5 -36zM442 1581q0 34 26.5 68t72.5 34q20 0 38.5 -7.5t33.5 -22.5t22.5 -33.5t7.5 -38.5q0 -42 -30 -72t-72 -30q-49 0 -74 32.5t-25 69.5zM807 1581q0 34 26.5 68t71.5 34
q42 0 72.5 -30.5t30.5 -71.5q0 -43 -29.5 -72.5t-73.5 -29.5q-48 0 -73 32.5t-25 69.5z" />
    <glyph glyph-name="multiply" unicode="&#xd7;" horiz-adv-x="1155" 
d="M479 518l-401 402l98 98l402 -404l403 404l98 -98l-403 -402l403 -403l-98 -99l-403 404l-402 -404l-98 99z" />
    <glyph glyph-name="Oslash" unicode="&#xd8;" horiz-adv-x="1479" 
d="M1079 1106l-630 -926q111 -135 290 -135q119 0 218.5 66.5t159 209t59.5 357.5q0 266 -97 428zM397 252l631 926q-116 133 -289 133q-179 0 -307.5 -155t-128.5 -478q0 -134 24 -240t70 -186zM1348 1503l-181 -266q114 -93 178 -233.5t64 -327.5q0 -212 -88.5 -372.5
t-243 -246.5t-338.5 -86q-204 0 -362 103l-162 -238h-100l194 285q-114 95 -176.5 236.5t-62.5 318.5q0 169 55.5 304t150 224t215 134.5t248.5 45.5q201 0 361 -100l147 219h101z" />
    <glyph glyph-name="Ugrave" unicode="&#xd9;" horiz-adv-x="1479" 
d="M1444 1356v-39q-64 -7 -99.5 -18.5t-56 -38t-29 -73.5t-8.5 -132v-535q0 -133 -27 -247t-144 -208t-359 -94q-176 0 -282.5 59t-154.5 145t-59.5 163.5t-11.5 155.5v639q0 78 -14 114.5t-52 50.5t-118 19v39h579v-39q-82 -6 -121 -21.5t-52 -52t-13 -110.5v-656
q0 -75 7 -135.5t41 -127.5t109 -110t199 -43q114 0 203 44.5t133 117.5q47 78 47 279v553q0 158 -39.5 207t-152.5 55v39h475zM930 1454h-72l-280 182q-52 37 -52 76q0 15 10 35t46 20q22 0 34.5 -6.5t42.5 -34.5z" />
    <glyph glyph-name="Uacute" unicode="&#xda;" horiz-adv-x="1479" 
d="M1444 1356v-39q-64 -7 -99.5 -18.5t-56 -38t-29 -73.5t-8.5 -132v-535q0 -133 -27 -247t-144 -208t-359 -94q-176 0 -282.5 59t-154.5 145t-59.5 163.5t-11.5 155.5v639q0 78 -14 114.5t-52 50.5t-118 19v39h579v-39q-82 -6 -121 -21.5t-52 -52t-13 -110.5v-656
q0 -75 7 -135.5t41 -127.5t109 -110t199 -43q114 0 203 44.5t133 117.5q47 78 47 279v553q0 158 -39.5 207t-152.5 55v39h475zM764 1473h-66l269 268q28 28 42 34.5t35 6.5q37 0 47.5 -20t10.5 -38q0 -42 -55 -73z" />
    <glyph glyph-name="Ucircumflex" unicode="&#xdb;" horiz-adv-x="1479" 
d="M1444 1356v-39q-64 -7 -99.5 -18.5t-56 -38t-29 -73.5t-8.5 -132v-535q0 -133 -27 -247t-144 -208t-359 -94q-176 0 -282.5 59t-154.5 145t-59.5 163.5t-11.5 155.5v639q0 78 -14 114.5t-52 50.5t-118 19v39h579v-39q-82 -6 -121 -21.5t-52 -52t-13 -110.5v-656
q0 -75 7 -135.5t41 -127.5t109 -110t199 -43q114 0 203 44.5t133 117.5q47 78 47 279v553q0 158 -39.5 207t-152.5 55v39h475zM1057 1464h-64l-223 181l-221 -181h-62l228 293h112z" />
    <glyph glyph-name="Udieresis" unicode="&#xdc;" horiz-adv-x="1479" 
d="M1444 1356v-39q-64 -7 -99.5 -18.5t-56 -38t-29 -73.5t-8.5 -132v-535q0 -133 -27 -247t-144 -208t-359 -94q-176 0 -282.5 59t-154.5 145t-59.5 163.5t-11.5 155.5v639q0 78 -14 114.5t-52 50.5t-118 19v39h579v-39q-82 -6 -121 -21.5t-52 -52t-13 -110.5v-656
q0 -75 7 -135.5t41 -127.5t109 -110t199 -43q114 0 203 44.5t133 117.5q47 78 47 279v553q0 158 -39.5 207t-152.5 55v39h475zM481 1563q0 34 26.5 68t72.5 34q20 0 38.5 -7.5t33.5 -22.5t22.5 -33.5t7.5 -38.5q0 -43 -30 -73t-72 -30q-47 0 -73 33t-26 70zM846 1563
q0 34 26.5 68t71.5 34q40 0 71.5 -30.5t31.5 -71.5q0 -44 -30.5 -73.5t-72.5 -29.5q-46 0 -72 33t-26 70z" />
    <glyph glyph-name="Yacute" unicode="&#xdd;" horiz-adv-x="1479" 
d="M1440 1356v-39q-51 -6 -85 -20t-83.5 -64.5t-114.5 -149.5l-303 -462v-398q0 -56 8 -91t28.5 -55t60 -28t114.5 -10v-39h-627v39q100 1 143 20t53.5 59t10.5 128v356l-268 393q-101 149 -156.5 216t-88 84t-87.5 22v39h573v-39q-85 -4 -115 -14t-30 -50q0 -38 35 -88
l303 -454l293 463q29 46 29 75q0 43 -38.5 55.5t-103.5 12.5v39h449zM821 1462h-65l268 269q28 28 42 34.5t36 6.5q36 0 46.5 -20t10.5 -38q0 -27 -14.5 -42t-40.5 -32z" />
    <glyph glyph-name="Thorn" unicode="&#xde;" horiz-adv-x="1139" 
d="M606 39v-39h-573v39q84 6 120 25.5t44 57t8 124.5v887q0 73 -12 109.5t-47 51.5t-113 23v39h567v-39q-59 -5 -94 -14t-55 -31t-28.5 -64t-8.5 -118h164q157 0 278 -44t187.5 -128t66.5 -197q0 -159 -125 -277q-66 -63 -169 -91.5t-265 -28.5q-63 0 -137 6v-107
q0 -76 15.5 -114t57 -53t119.5 -17zM414 944v-532q58 -6 123 -6q125 0 237.5 56t112.5 255q0 188 -123.5 241.5t-265.5 53.5q-52 0 -68 -10.5t-16 -57.5z" />
    <glyph glyph-name="germandbls" unicode="&#xdf;" 
d="M25 0v31q70 5 97.5 28t27.5 113v758q0 78 8.5 147.5t43.5 145t112 126t206 50.5q80 0 159 -31.5t131 -99.5t52 -170q0 -76 -22 -129t-80.5 -99t-171.5 -96v-4q83 -11 168 -52t143.5 -126.5t58.5 -218.5q0 -96 -45 -186.5t-127.5 -147.5t-189.5 -57q-110 0 -156.5 49
t-46.5 98q0 44 26 72t66 28q38 0 60.5 -24t25.5 -58l4 -45q5 -30 15 -45.5t45 -15.5q54 0 83 40.5t38.5 107t9.5 163.5q0 77 -12.5 133.5t-33 97t-39.5 63.5t-36 36q-31 26 -65 35.5t-75.5 13.5t-58 10t-16.5 25q0 21 57 32t93 24.5t70 68.5t34 170q0 92 -24 155.5t-65 95
t-91 31.5q-112 0 -147 -75t-35 -144v-1124h-297z" />
    <glyph glyph-name="agrave" unicode="&#xe0;" horiz-adv-x="909" 
d="M588 252v297q-202 -67 -267 -140t-65 -147v-4q0 -70 38.5 -115t96.5 -45q29 0 68 13t59 24q31 15 46.5 30.5t19.5 35t4 51.5zM905 135v-53q-56 -65 -99.5 -83.5t-82.5 -18.5q-123 0 -133 149q-71 -64 -145 -106.5t-152 -42.5q-89 0 -153 57.5t-64 155.5q0 75 32 130
t93 96.5t149 81t238 97.5v125q0 98 -47.5 134t-110.5 36q-55 0 -100 -27.5t-45 -72.5q0 -10 5 -39t5 -41q0 -32 -26 -60t-66 -28q-44 0 -66 29.5t-22 60.5q0 78 86.5 152.5t247.5 74.5q139 0 206.5 -51.5t83 -118.5t15.5 -158v-399q0 -59 10 -89t49 -30q44 0 92 39z
M664 1040h-72l-281 183q-51 36 -51 75q0 15 10 35.5t45 20.5q23 0 35.5 -6.5t42.5 -34.5z" />
    <glyph glyph-name="aacute" unicode="&#xe1;" horiz-adv-x="909" 
d="M588 252v297q-202 -67 -267 -140t-65 -147v-4q0 -70 38.5 -115t96.5 -45q29 0 68 13t59 24q31 15 46.5 30.5t19.5 35t4 51.5zM905 135v-53q-56 -65 -99.5 -83.5t-82.5 -18.5q-123 0 -133 149q-71 -64 -145 -106.5t-152 -42.5q-89 0 -153 57.5t-64 155.5q0 75 32 130
t93 96.5t149 81t238 97.5v125q0 98 -47.5 134t-110.5 36q-55 0 -100 -27.5t-45 -72.5q0 -10 5 -39t5 -41q0 -32 -26 -60t-66 -28q-44 0 -66 29.5t-22 60.5q0 78 86.5 152.5t247.5 74.5q139 0 206.5 -51.5t83 -118.5t15.5 -158v-399q0 -59 10 -89t49 -30q44 0 92 39z
M375 1049h-66l269 268q27 28 41.5 34.5t35.5 6.5q37 0 47.5 -20t10.5 -38q0 -44 -56 -73z" />
    <glyph glyph-name="acircumflex" unicode="&#xe2;" horiz-adv-x="909" 
d="M588 252v297q-202 -67 -267 -140t-65 -147v-4q0 -70 38.5 -115t96.5 -45q29 0 68 13t59 24q31 15 46.5 30.5t19.5 35t4 51.5zM905 135v-53q-56 -65 -99.5 -83.5t-82.5 -18.5q-123 0 -133 149q-71 -64 -145 -106.5t-152 -42.5q-89 0 -153 57.5t-64 155.5q0 75 32 130
t93 96.5t149 81t238 97.5v125q0 98 -47.5 134t-110.5 36q-55 0 -100 -27.5t-45 -72.5q0 -10 5 -39t5 -41q0 -32 -26 -60t-66 -28q-44 0 -66 29.5t-22 60.5q0 78 86.5 152.5t247.5 74.5q139 0 206.5 -51.5t83 -118.5t15.5 -158v-399q0 -59 10 -89t49 -30q44 0 92 39z
M731 1024h-63l-224 180l-221 -180h-61l227 293h113z" />
    <glyph glyph-name="atilde" unicode="&#xe3;" horiz-adv-x="909" 
d="M588 252v297q-202 -67 -267 -140t-65 -147v-4q0 -70 38.5 -115t96.5 -45q29 0 68 13t59 24q31 15 46.5 30.5t19.5 35t4 51.5zM905 135v-53q-56 -65 -99.5 -83.5t-82.5 -18.5q-123 0 -133 149q-71 -64 -145 -106.5t-152 -42.5q-89 0 -153 57.5t-64 155.5q0 75 32 130
t93 96.5t149 81t238 97.5v125q0 98 -47.5 134t-110.5 36q-55 0 -100 -27.5t-45 -72.5q0 -10 5 -39t5 -41q0 -32 -26 -60t-66 -28q-44 0 -66 29.5t-22 60.5q0 78 86.5 152.5t247.5 74.5q139 0 206.5 -51.5t83 -118.5t15.5 -158v-399q0 -59 10 -89t49 -30q44 0 92 39z
M733 1243h53q-21 -82 -60 -138t-132 -56q-34 0 -58.5 8t-86.5 35l-41 18q-38 18 -64 18q-46 0 -66.5 -24t-31.5 -60h-53q8 45 30.5 87t64 70t97.5 28t117 -31l43 -20q49 -27 84 -27q37 0 59.5 19t44.5 73z" />
    <glyph glyph-name="adieresis" unicode="&#xe4;" horiz-adv-x="909" 
d="M588 252v297q-202 -67 -267 -140t-65 -147v-4q0 -70 38.5 -115t96.5 -45q29 0 68 13t59 24q31 15 46.5 30.5t19.5 35t4 51.5zM905 135v-53q-56 -65 -99.5 -83.5t-82.5 -18.5q-123 0 -133 149q-71 -64 -145 -106.5t-152 -42.5q-89 0 -153 57.5t-64 155.5q0 75 32 130
t93 96.5t149 81t238 97.5v125q0 98 -47.5 134t-110.5 36q-55 0 -100 -27.5t-45 -72.5q0 -10 5 -39t5 -41q0 -32 -26 -60t-66 -28q-44 0 -66 29.5t-22 60.5q0 78 86.5 152.5t247.5 74.5q139 0 206.5 -51.5t83 -118.5t15.5 -158v-399q0 -59 10 -89t49 -30q44 0 92 39z
M147 1147q0 34 26.5 68t72.5 34q20 0 38.5 -7.5t33.5 -22.5t22.5 -33.5t7.5 -38.5q0 -41 -31 -72t-71 -31q-47 0 -73 33t-26 70zM512 1147q0 34 26.5 68t71.5 34q42 0 72.5 -30.5t30.5 -71.5q0 -42 -30.5 -72.5t-72.5 -30.5q-46 0 -72 33t-26 70z" />
    <glyph glyph-name="aring" unicode="&#xe5;" horiz-adv-x="909" 
d="M588 252v297q-202 -67 -267 -140t-65 -147v-4q0 -70 38.5 -115t96.5 -45q29 0 68 13t59 24q31 15 46.5 30.5t19.5 35t4 51.5zM905 135v-53q-56 -65 -99.5 -83.5t-82.5 -18.5q-123 0 -133 149q-71 -64 -145 -106.5t-152 -42.5q-89 0 -153 57.5t-64 155.5q0 75 32 130
t93 96.5t149 81t238 97.5v125q0 98 -47.5 134t-110.5 36q-55 0 -100 -27.5t-45 -72.5q0 -10 5 -39t5 -41q0 -32 -26 -60t-66 -28q-44 0 -66 29.5t-22 60.5q0 78 86.5 152.5t247.5 74.5q139 0 206.5 -51.5t83 -118.5t15.5 -158v-399q0 -59 10 -89t49 -30q44 0 92 39z
M291 1219q0 48 23.5 90t65 67t91.5 25q49 0 91 -24.5t66.5 -66.5t24.5 -91q0 -50 -24.5 -91.5t-67 -65.5t-90.5 -24q-76 0 -128 53t-52 128zM469 1341h-2q-53 -1 -85 -41.5t-32 -78.5q0 -41 31 -80t86 -39q53 0 88 34t35 85t-35.5 85.5t-85.5 34.5z" />
    <glyph glyph-name="ae" unicode="&#xe6;" horiz-adv-x="1366" 
d="M1270 315l24 -10q-58 -137 -132.5 -209t-141 -94t-121.5 -22q-114 0 -169.5 41t-102.5 108q-89 -74 -156.5 -111.5t-157.5 -37.5q-116 0 -175.5 69.5t-59.5 147.5q0 66 28 115.5t87 91t136 75.5t230 96q4 92 4 123q0 104 -25.5 149.5t-101.5 45.5q-62 0 -100.5 -27
t-38.5 -88l2 -22v-33q0 -100 -90 -100q-32 0 -59 23.5t-27 76.5q0 61 43.5 111.5t117.5 79t162 28.5q65 0 109 -13t74.5 -32.5t60.5 -46.5q63 51 118.5 71.5t131.5 20.5q102 0 167.5 -41t96 -99t42 -116.5t16.5 -118.5h-537q0 -104 5 -171.5t31 -134.5t80.5 -105.5
t145.5 -38.5q79 0 153.5 55t129.5 143zM256 244q0 -54 36 -110t111 -56q38 0 83.5 19t79.5 44t34 39q0 4 -10.5 37.5t-19 79t-9.5 115.5l-2 106q-124 -43 -190 -81.5t-89.5 -82t-23.5 -110.5zM727 629h340q0 254 -158 254q-110 0 -143.5 -73.5t-38.5 -180.5z" />
    <glyph glyph-name="ccedilla" unicode="&#xe7;" horiz-adv-x="909" 
d="M815 319l29 -18q-56 -117 -118.5 -187t-135 -102t-156.5 -32q-87 0 -176.5 49.5t-148 152t-58.5 254.5q0 122 39.5 217t105 159.5t147 97t167.5 32.5q54 0 115 -18.5t102 -44.5q43 -29 65.5 -71t22.5 -73q0 -37 -25 -62t-69 -28q-37 0 -63.5 28t-36.5 66l-13 45
q-15 57 -38 78t-97 21q-50 0 -111 -32.5t-107 -114.5t-46 -218q0 -113 42 -203t113 -139t158 -49q101 0 165.5 49t127.5 143zM260 -201l78 187h63l-45 -119q17 2 50 2q72 0 111.5 -32.5t39.5 -94.5q0 -61 -56 -105.5t-165 -44.5q-56 0 -88.5 7.5t-71.5 21.5l25 55
q21 -8 58.5 -14t53.5 -6q105 0 105 80q0 61 -82 61q-45 0 -64 -6z" />
    <glyph glyph-name="egrave" unicode="&#xe8;" horiz-adv-x="909" 
d="M836 336l32 -14q-20 -59 -66.5 -134.5t-141.5 -141.5t-226 -66q-114 0 -201 54.5t-134.5 157.5t-47.5 246q0 135 40 232.5t103 157t136.5 87t138.5 27.5q154 0 249 -91.5t111 -283.5h-636q11 -168 61 -268.5t118.5 -139t145.5 -38.5q119 0 189.5 61.5t128.5 153.5z
M199 633h422q-15 107 -52.5 171t-144.5 64q-90 0 -146 -53t-79 -182zM643 1040h-72l-280 183q-51 34 -51 75q0 15 10 35.5t45 20.5q23 0 35.5 -6.5t42.5 -34.5z" />
    <glyph glyph-name="eacute" unicode="&#xe9;" horiz-adv-x="909" 
d="M836 336l32 -14q-20 -59 -66.5 -134.5t-141.5 -141.5t-226 -66q-114 0 -201 54.5t-134.5 157.5t-47.5 246q0 135 40 232.5t103 157t136.5 87t138.5 27.5q154 0 249 -91.5t111 -283.5h-636q11 -168 61 -268.5t118.5 -139t145.5 -38.5q119 0 189.5 61.5t128.5 153.5z
M199 633h422q-15 107 -52.5 171t-144.5 64q-90 0 -146 -53t-79 -182zM385 1049h-66l269 268q28 28 42 34.5t36 6.5q36 0 46.5 -20t10.5 -38q0 -42 -55 -73z" />
    <glyph glyph-name="ecircumflex" unicode="&#xea;" horiz-adv-x="909" 
d="M836 336l32 -14q-20 -59 -66.5 -134.5t-141.5 -141.5t-226 -66q-114 0 -201 54.5t-134.5 157.5t-47.5 246q0 135 40 232.5t103 157t136.5 87t138.5 27.5q154 0 249 -91.5t111 -283.5h-636q11 -168 61 -268.5t118.5 -139t145.5 -38.5q119 0 189.5 61.5t128.5 153.5z
M199 633h422q-15 107 -52.5 171t-144.5 64q-90 0 -146 -53t-79 -182zM723 1032h-64l-223 180l-221 -180h-61l227 293h113z" />
    <glyph glyph-name="edieresis" unicode="&#xeb;" horiz-adv-x="909" 
d="M836 336l32 -14q-20 -59 -66.5 -134.5t-141.5 -141.5t-226 -66q-114 0 -201 54.5t-134.5 157.5t-47.5 246q0 135 40 232.5t103 157t136.5 87t138.5 27.5q154 0 249 -91.5t111 -283.5h-636q11 -168 61 -268.5t118.5 -139t145.5 -38.5q119 0 189.5 61.5t128.5 153.5z
M199 633h422q-15 107 -52.5 171t-144.5 64q-90 0 -146 -53t-79 -182zM160 1145q0 34 26.5 68t71.5 34q20 0 38.5 -7.5t33.5 -22.5t22.5 -33.5t7.5 -38.5q0 -43 -30 -73t-72 -30q-46 0 -72 33t-26 70zM524 1145q0 34 26.5 68t72.5 34q20 0 38.5 -7.5t33.5 -22.5t22.5 -33.5
t7.5 -38.5q0 -43 -30 -73t-72 -30q-47 0 -73 33t-26 70z" />
    <glyph glyph-name="igrave" unicode="&#xec;" horiz-adv-x="569" 
d="M33 0v31q69 3 102 14.5t46.5 47.5t13.5 116v475q0 80 -18.5 101.5t-53.5 21.5q-28 0 -82 -8v30l317 113l9 -6v-727q0 -75 9 -109t39 -49t103 -20v-31h-485zM434 1092h-72l-280 182q-51 34 -51 76q0 15 10 35t45 20q23 0 35.5 -6.5t42.5 -34.5z" />
    <glyph glyph-name="iacute" unicode="&#xed;" horiz-adv-x="569" 
d="M33 0v31q69 3 102 14.5t46.5 47.5t13.5 116v475q0 80 -18.5 101.5t-53.5 21.5q-28 0 -82 -8v30l317 113l9 -6v-727q0 -75 9 -109t39 -49t103 -20v-31h-485zM176 1079h-65l268 269q28 28 42 34.5t36 6.5q36 0 46.5 -20t10.5 -38q0 -27 -14.5 -42t-40.5 -32z" />
    <glyph glyph-name="icircumflex" unicode="&#xee;" horiz-adv-x="569" 
d="M33 0v31q69 3 102 14.5t46.5 47.5t13.5 116v475q0 80 -18.5 101.5t-53.5 21.5q-28 0 -82 -8v30l317 113l9 -6v-727q0 -75 9 -109t39 -49t103 -20v-31h-485zM537 1069h-64l-223 180l-221 -180h-62l228 293h112z" />
    <glyph glyph-name="idieresis" unicode="&#xef;" horiz-adv-x="569" 
d="M33 0v31q69 3 102 14.5t46.5 47.5t13.5 116v475q0 80 -18.5 101.5t-53.5 21.5q-28 0 -82 -8v30l317 113l9 -6v-727q0 -75 9 -109t39 -49t103 -20v-31h-485zM-39 1188q0 34 26.5 68t71.5 34q42 0 72.5 -30.5t30.5 -71.5q0 -44 -29.5 -73.5t-73.5 -29.5q-46 0 -72 33
t-26 70zM326 1188q0 34 26.5 68t71.5 34q20 0 38.5 -7.5t33.5 -22.5t22.5 -33.5t7.5 -38.5q0 -43 -30 -73t-72 -30q-46 0 -72 33t-26 70z" />
    <glyph glyph-name="eth" unicode="&#xf0;" 
d="M539 37q59 0 113.5 34t91 117t36.5 220q0 149 -40.5 258t-108 164t-144.5 55q-65 0 -121 -36t-89 -108t-33 -172q0 -104 25 -224.5t91.5 -214t178.5 -93.5zM553 1178l-252 -134l-68 62l248 131q-130 93 -272 115l86 47q177 -12 311 -96l195 102l67 -62l-186 -98
q69 -57 124 -135.5t89 -162.5t52 -179.5t18 -185.5q0 -107 -29 -216t-85 -195t-142.5 -138.5t-198.5 -52.5q-130 0 -232.5 62.5t-160.5 171t-58 237.5q0 133 54 246t156 179t233 66q66 0 122 -27.5t121 -89.5l5 4q-14 89 -67 182t-130 167z" />
    <glyph glyph-name="ntilde" unicode="&#xf1;" 
d="M164 184v508q0 85 -18.5 108t-53.5 23q-43 0 -59 -8v35q165 48 282 92l15 -4v-162q94 88 155.5 127t143.5 39q92 0 165.5 -69t73.5 -238v-469q0 -73 26 -101t99 -34v-31h-426v31q68 5 98.5 35.5t30.5 136.5v428q0 100 -35.5 149t-121.5 49q-82 0 -203 -116v-576
q0 -52 29 -77t106 -29v-31h-434v31q51 3 77.5 16t38 44t11.5 93zM780 1241h54q-20 -79 -60 -136.5t-133 -57.5q-34 0 -58.5 8t-86.5 35l-41 18q-38 18 -64 18q-71 0 -98 -84h-53q8 45 30.5 87t64 70t97.5 28t117 -31l43 -20q49 -27 84 -27q37 0 59.5 19t44.5 73z" />
    <glyph glyph-name="ograve" unicode="&#xf2;" 
d="M502 942q100 0 184 -31.5t147.5 -95t96.5 -151.5t33 -197q0 -108 -51.5 -221.5t-154.5 -189.5t-249 -76q-130 0 -232 63.5t-159.5 174.5t-57.5 249q0 93 31 181t88.5 152.5t141 103t182.5 38.5zM537 37q59 0 113.5 34t91 117t36.5 220q0 131 -34 238.5t-101.5 173
t-157.5 65.5q-66 0 -121 -36.5t-87.5 -108t-32.5 -175.5q0 -101 25 -222t91 -213.5t177 -92.5zM694 1030h-71l-281 182q-51 38 -51 76q0 15 10 35t45 20q23 0 35 -6t43 -34z" />
    <glyph glyph-name="oacute" unicode="&#xf3;" 
d="M502 942q100 0 184 -31.5t147.5 -95t96.5 -151.5t33 -197q0 -108 -51.5 -221.5t-154.5 -189.5t-249 -76q-130 0 -232 63.5t-159.5 174.5t-57.5 249q0 93 31 181t88.5 152.5t141 103t182.5 38.5zM537 37q59 0 113.5 34t91 117t36.5 220q0 131 -34 238.5t-101.5 173
t-157.5 65.5q-66 0 -121 -36.5t-87.5 -108t-32.5 -175.5q0 -101 25 -222t91 -213.5t177 -92.5zM416 1038h-66l268 269q28 28 42.5 34.5t35.5 6.5q37 0 47.5 -20t10.5 -38q0 -44 -56 -73z" />
    <glyph glyph-name="ocircumflex" unicode="&#xf4;" 
d="M502 942q100 0 184 -31.5t147.5 -95t96.5 -151.5t33 -197q0 -108 -51.5 -221.5t-154.5 -189.5t-249 -76q-130 0 -232 63.5t-159.5 174.5t-57.5 249q0 93 31 181t88.5 152.5t141 103t182.5 38.5zM537 37q59 0 113.5 34t91 117t36.5 220q0 131 -34 238.5t-101.5 173
t-157.5 65.5q-66 0 -121 -36.5t-87.5 -108t-32.5 -175.5q0 -101 25 -222t91 -213.5t177 -92.5zM803 1030h-64l-223 180l-221 -180h-62l228 293h112z" />
    <glyph glyph-name="otilde" unicode="&#xf5;" 
d="M502 942q100 0 184 -31.5t147.5 -95t96.5 -151.5t33 -197q0 -108 -51.5 -221.5t-154.5 -189.5t-249 -76q-130 0 -232 63.5t-159.5 174.5t-57.5 249q0 93 31 181t88.5 152.5t141 103t182.5 38.5zM537 37q59 0 113.5 34t91 117t36.5 220q0 131 -34 238.5t-101.5 173
t-157.5 65.5q-66 0 -121 -36.5t-87.5 -108t-32.5 -175.5q0 -101 25 -222t91 -213.5t177 -92.5zM754 1243h53q-21 -81 -60.5 -137.5t-132.5 -56.5q-34 0 -58.5 8t-86.5 35l-41 18q-36 18 -63 18q-72 0 -99 -84h-53q13 71 61 128t132 57q55 0 116 -31l43 -20q52 -27 84 -27
q37 0 60 19t45 73z" />
    <glyph glyph-name="odieresis" unicode="&#xf6;" 
d="M502 942q100 0 184 -31.5t147.5 -95t96.5 -151.5t33 -197q0 -108 -51.5 -221.5t-154.5 -189.5t-249 -76q-130 0 -232 63.5t-159.5 174.5t-57.5 249q0 93 31 181t88.5 152.5t141 103t182.5 38.5zM537 37q59 0 113.5 34t91 117t36.5 220q0 131 -34 238.5t-101.5 173
t-157.5 65.5q-66 0 -121 -36.5t-87.5 -108t-32.5 -175.5q0 -101 25 -222t91 -213.5t177 -92.5zM240 1153q0 34 26.5 68t71.5 34q20 0 38.5 -7.5t33.5 -22.5t22.5 -33.5t7.5 -38.5q0 -42 -30 -72t-72 -30q-48 0 -73 32.5t-25 69.5zM604 1153q0 34 26.5 68t71.5 34
q42 0 72.5 -30.5t30.5 -71.5q0 -43 -29.5 -72.5t-73.5 -29.5q-48 0 -73 32.5t-25 69.5z" />
    <glyph glyph-name="divide" unicode="&#xf7;" horiz-adv-x="1155" 
d="M1094 451h-1033v135h1033v-135zM578 829q-40 0 -76.5 29.5t-36.5 81.5q0 48 33.5 82.5t79.5 34.5q47 0 80.5 -34.5t33.5 -82.5q0 -52 -37.5 -81.5t-76.5 -29.5zM578 -20q-40 0 -76.5 29.5t-36.5 80.5q0 48 33.5 82.5t79.5 34.5q47 0 80.5 -34.5t33.5 -82.5
q0 -51 -37.5 -80.5t-76.5 -29.5z" />
    <glyph glyph-name="oslash" unicode="&#xf8;" 
d="M696 750l-329 -627q67 -86 170 -86q59 0 113.5 34t91 117t36.5 220q0 208 -82 342zM895 1128l-133 -256q95 -57 148 -161.5t53 -243.5q0 -108 -51.5 -221.5t-154.5 -189.5t-249 -76q-104 0 -193 43l-133 -252h-76l150 286q-93 66 -145 174t-52 236q0 93 31 181
t88.5 152.5t141 103t182.5 38.5q109 0 196 -37l117 223h80zM324 188l325 623q-71 74 -164 74q-66 0 -121 -36.5t-87.5 -108t-32.5 -175.5q0 -85 18.5 -190t61.5 -187z" />
    <glyph glyph-name="ugrave" unicode="&#xf9;" 
d="M981 102v-28q-88 -23 -285 -92l-4 4v170l-88 -88q-53 -53 -111 -70.5t-104 -17.5q-53 0 -108 23.5t-95.5 83.5t-40.5 159v516q0 82 -32 104.5t-95 26.5v29h299v-668q0 -44 34 -100t120 -56q88 0 178 74q33 28 33 104v482q0 70 -26.5 98t-125.5 31v35h324v-703
q0 -46 7 -68.5t34 -35.5t86 -13zM684 1040h-72l-280 183q-51 34 -51 75q0 15 10 35.5t45 20.5q23 0 35.5 -6.5t42.5 -34.5z" />
    <glyph glyph-name="uacute" unicode="&#xfa;" 
d="M981 102v-28q-88 -23 -285 -92l-4 4v170l-88 -88q-53 -53 -111 -70.5t-104 -17.5q-53 0 -108 23.5t-95.5 83.5t-40.5 159v516q0 82 -32 104.5t-95 26.5v29h299v-668q0 -44 34 -100t120 -56q88 0 178 74q33 28 33 104v482q0 70 -26.5 98t-125.5 31v35h324v-703
q0 -46 7 -68.5t34 -35.5t86 -13zM467 1038h-66l269 269q28 28 42 34.5t36 6.5q36 0 46.5 -20t10.5 -38q0 -42 -55 -73z" />
    <glyph glyph-name="ucircumflex" unicode="&#xfb;" 
d="M981 102v-28q-88 -23 -285 -92l-4 4v170l-88 -88q-53 -53 -111 -70.5t-104 -17.5q-53 0 -108 23.5t-95.5 83.5t-40.5 159v516q0 82 -32 104.5t-95 26.5v29h299v-668q0 -44 34 -100t120 -56q88 0 178 74q33 28 33 104v482q0 70 -26.5 98t-125.5 31v35h324v-703
q0 -46 7 -68.5t34 -35.5t86 -13zM788 1030h-63l-223 180l-221 -180h-62l227 293h113z" />
    <glyph glyph-name="udieresis" unicode="&#xfc;" 
d="M981 102v-28q-88 -23 -285 -92l-4 4v170l-88 -88q-53 -53 -111 -70.5t-104 -17.5q-53 0 -108 23.5t-95.5 83.5t-40.5 159v516q0 82 -32 104.5t-95 26.5v29h299v-668q0 -44 34 -100t120 -56q88 0 178 74q33 28 33 104v482q0 70 -26.5 98t-125.5 31v35h324v-703
q0 -46 7 -68.5t34 -35.5t86 -13zM213 1128q0 34 26 68.5t72 34.5q43 0 73 -30t30 -73t-29.5 -72.5t-73.5 -29.5q-48 0 -73 32.5t-25 69.5zM578 1128q0 34 26 68.5t72 34.5q41 0 71.5 -30.5t30.5 -72.5t-30 -72t-72 -30q-48 0 -73 32.5t-25 69.5z" />
    <glyph glyph-name="yacute" unicode="&#xfd;" 
d="M973 922v-31q-31 -5 -54.5 -21t-44.5 -71l-315 -836q-56 -146 -105.5 -233t-108.5 -131.5t-134 -44.5q-71 0 -110.5 36.5t-39.5 81.5q0 27 19.5 58.5t79.5 31.5q31 0 84 -18t61 -18q37 0 71.5 40.5t61.5 101t41.5 109.5t14.5 64q0 14 -22.5 63.5t-57.5 120.5t-47 99
l-234 503q-25 54 -104 66v29h422v-31q-55 -2 -87 -12t-32 -48q0 -26 20 -73l236 -518l160 454q11 29 22 59t18 50.5t7 30.5q0 57 -99 57v31h277zM549 1049h-66l269 268q28 28 42 34.5t35 6.5q37 0 47.5 -20t10.5 -38q0 -44 -56 -73z" />
    <glyph glyph-name="thorn" unicode="&#xfe;" 
d="M154 -268v1442q0 57 -15 80.5t-76 23.5q-32 0 -45 -2v33q67 18 143.5 40.5t153.5 49.5l11 -6v-605h-2l4 -4q52 66 122.5 112t174.5 46q90 0 168.5 -54t124 -154t45.5 -232q0 -91 -27.5 -183t-84 -169.5t-136.5 -123.5t-183 -46q-60 0 -108 19.5t-98 68.5v-322
q0 -66 14 -98.5t52.5 -44t113.5 -11.5v-36h-496v36q65 4 96 20t39.5 43t8.5 77zM326 684v-504q0 -39 65 -87t144 -48q49 0 105.5 29t101 116.5t44.5 249.5q0 58 -16 142.5t-74 160.5t-170 76q-39 0 -83 -18t-77.5 -49t-39.5 -68z" />
    <glyph glyph-name="ydieresis" unicode="&#xff;" 
d="M973 922v-31q-31 -5 -54.5 -21t-44.5 -71l-315 -836q-56 -146 -105.5 -233t-108.5 -131.5t-134 -44.5q-71 0 -110.5 36.5t-39.5 81.5q0 27 19.5 58.5t79.5 31.5q31 0 84 -18t61 -18q37 0 71.5 40.5t61.5 101t41.5 109.5t14.5 64q0 14 -22.5 63.5t-57.5 120.5t-47 99
l-234 503q-25 54 -104 66v29h422v-31q-55 -2 -87 -12t-32 -48q0 -26 20 -73l236 -518l160 454q11 29 22 59t18 50.5t7 30.5q0 57 -99 57v31h277zM287 1147q0 34 26.5 68t71.5 34q20 0 38.5 -7.5t33.5 -22.5t22.5 -33.5t7.5 -38.5q0 -41 -31 -72t-71 -31q-46 0 -72 33t-26 70
zM651 1147q0 34 26.5 68t72.5 34q20 0 38.5 -7.5t33.5 -22.5t22.5 -33.5t7.5 -38.5q0 -41 -31 -72t-71 -31q-47 0 -73 33t-26 70z" />
    <glyph glyph-name="lslash" horiz-adv-x="569" 
d="M43 0v31q92 6 125 35t33 112v469l-160 -106v90l160 108v416q0 51 -7 76.5t-27 37t-58 11.5q-22 0 -70 -4v33q183 44 326 90l8 -4v-537l157 109v-90l-157 -107v-598q0 -59 13 -87.5t44.5 -39.5t95.5 -14v-31h-483z" />
    <glyph glyph-name="dotaccent" horiz-adv-x="682" 
d="M242 1174q0 35 26 68.5t72 33.5q20 0 38.5 -7.5t33.5 -22.5t22.5 -33.5t7.5 -38.5q0 -43 -30 -73t-72 -30q-46 0 -72 33t-26 70z" />
    <glyph glyph-name="hungarumlaut" horiz-adv-x="682" 
d="M395 1038h-82l301 303q33 33 49.5 40.5t41.5 7.5q41 0 54 -22.5t13 -43.5q0 -49 -61 -86zM76 1038h-82l301 303q33 33 49 40.5t41 7.5q42 0 55 -22.5t13 -43.5q0 -51 -62 -86z" />
    <glyph glyph-name="fi" horiz-adv-x="1139" 
d="M63 856v66h142q4 150 56.5 258t150 163.5t239.5 55.5q65 0 126.5 -15.5t96.5 -48.5t35 -84q0 -30 -21.5 -52.5t-49.5 -22.5q-35 0 -55.5 19t-51 62.5t-62.5 67t-83 23.5q-67 0 -118 -40t-73 -91q-14 -40 -18 -104t-4 -191h321q119 0 232 20l8 -6q-4 -132 -4 -201v-536
q0 -101 27.5 -131.5t109.5 -36.5v-31h-451v31q68 4 98 20t37 46t7 102v540q0 62 -12 83t-62 28q-29 2 -157.5 4t-151.5 2v-676q0 -52 7.5 -80t38.5 -47t95 -22v-31h-450v31q56 2 83.5 12.5t40.5 44t13 105.5v663h-140z" />
    <glyph glyph-name="sac" unicode="&#xf008;" horiz-adv-x="2" 
d="M-379 1069h-65l268 268q28 28 42 34.5t36 6.5q36 0 46.5 -20t10.5 -37q0 -43 -55 -74z" />
    <glyph glyph-name="huyen" unicode="&#xf00d;" horiz-adv-x="2" 
d="M-96 1059h-72l-281 182q-51 36 -51 76q0 15 10 35t46 20q22 0 34.5 -6.5t42.5 -34.5z" />
    <glyph glyph-name="hoi" unicode="&#xf012;" horiz-adv-x="2" 
d="M-352 1438h-4q-56 -18 -56 -47q0 -13 13 -30.5t14 -27.5q0 -27 -19 -44t-42 -17q-50 0 -50 61q7 70 54 116t139 46q95 -3 149.5 -37t61.5 -121q0 -55 -40.5 -101t-78.5 -67q-10 -8 -27 -20t-24.5 -24.5t-9.5 -41.5h-68q3 49 29.5 81.5t58 64.5t33.5 65q0 144 -133 144z
" />
    <glyph glyph-name="nga" unicode="&#xf01d;" horiz-adv-x="2" 
d="M-39 1276h53q-20 -82 -59.5 -138.5t-132.5 -56.5q-34 0 -61 8.5t-85 34.5l-41 19q-36 18 -63 18q-46 0 -66.5 -24t-31.5 -60h-54q15 74 62 129.5t131 55.5q53 0 117 -31l43 -21q52 -26 84 -26q37 0 59.5 19t44.5 73z" />
    <glyph glyph-name="nang" unicode="&#xf02a;" horiz-adv-x="2" 
d="M-375 -231q0 18 10 40t30 37t50 15q43 0 69 -26t26 -66t-26.5 -66.5t-68.5 -26.5q-43 0 -66.5 30t-23.5 63z" />
    <glyph glyph-name="aa" horiz-adv-x="682" 
d="M569 1360h56q-35 -277 -263 -277q-69 0 -126.5 30t-92 91.5t-34.5 153.5h53q14 -80 65 -124t138 -44q64 0 103.5 22.5t59 56t41.5 91.5z" />
    <glyph glyph-name="ab" horiz-adv-x="682" 
d="M659 1038h-63l-223 181l-221 -181h-62l227 293h113z" />
    <glyph glyph-name="dth" unicode="&#x111;" 
d="M696 209v471q-4 49 -24 89.5t-49.5 66t-64.5 37.5t-73 12q-63 0 -121 -39t-95.5 -124t-37.5 -216q0 -211 84 -315.5t199 -104.5q68 0 119 34t63 89zM1006 119v-33q-55 -19 -301 -106l-9 6v125h-4q-87 -131 -264 -131q-119 0 -246 95t-127 363q0 100 33 190t93.5 162.5
t137.5 112t160 39.5q117 0 217 -88v195h-250v96h250v26q0 57 -14.5 81t-75.5 24q-33 0 -49 -2v33q171 44 301 90l10 -4v-248h144v-96h-144v-816q0 -66 22 -90t116 -24z" />
    <glyph glyph-name="dth" unicode="&#x20ab;" 
d="M696 209v471q-4 49 -24 89.5t-49.5 66t-64.5 37.5t-73 12q-63 0 -121 -39t-95.5 -124t-37.5 -216q0 -211 84 -315.5t199 -104.5q68 0 119 34t63 89zM1006 119v-33q-55 -19 -301 -106l-9 6v125h-4q-87 -131 -264 -131q-119 0 -246 95t-127 363q0 100 33 190t93.5 162.5
t137.5 112t160 39.5q117 0 217 -88v195h-250v96h250v26q0 57 -14.5 81t-75.5 24q-33 0 -49 -2v33q171 44 301 90l10 -4v-248h144v-96h-144v-816q0 -66 22 -90t116 -24z" />
    <glyph glyph-name="dhoa" unicode="&#x110;" horiz-adv-x="1479" 
d="M33 1317v39h553q186 0 337 -42.5t258.5 -127t164.5 -213.5t57 -299q0 -114 -38.5 -230.5t-127.5 -217t-244 -163.5t-379 -63h-581v39q81 5 117.5 20.5t49.5 52.5t13 111v422h-170v90h170v398q0 77 -12.5 113.5t-49 50.5t-118.5 20zM721 735v-90h-299v-485q0 -52 24.5 -68
t98.5 -16q89 0 182.5 14t199 69t179.5 179.5t74 333.5q0 293 -191 465q-82 73 -186 108t-285 35q-64 0 -80 -19.5t-16 -60.5v-465h299z" />
    <glyph glyph-name="octh" unicode="&#x1a1;" horiz-adv-x="1065" 
d="M483 942q115 0 203.5 -40t141 -98.5t71.5 -119.5q17 0 46.5 13.5t51 32.5t21.5 30q-70 0 -70 96q0 39 22 63.5t60 24.5q37 0 64 -27t28 -65q0 -65 -29.5 -117t-75 -82.5t-91.5 -31.5q18 -42 18 -154q0 -108 -51.5 -221.5t-154 -189.5t-249.5 -76q-98 0 -179.5 36.5
t-143 104.5t-93.5 157t-32 189q0 125 54 235t155.5 175t232.5 65zM518 37q58 0 113.5 34t92 117t36.5 220q0 126 -34.5 236.5t-101.5 175.5t-157 65q-65 0 -120.5 -36t-88.5 -108t-33 -176q0 -101 25 -222t91 -213.5t177 -92.5z" />
    <glyph glyph-name="ochoa" unicode="&#x1a0;" horiz-adv-x="1495" 
d="M731 -29q-184 0 -338.5 86t-243 246.5t-88.5 372.5q0 170 55 303.5t150.5 223.5t216 135.5t248.5 45.5q115 0 206 -23.5t159 -63t115 -86.5t77 -97q34 0 78.5 29t44.5 49q-70 0 -70 96q0 39 22 63.5t60 24.5q39 0 65 -26.5t28 -65.5q0 -62 -29 -115t-75 -83.5t-93 -32.5
q43 -75 62.5 -162.5t19.5 -214.5q0 -212 -88.5 -372.5t-243 -246.5t-338.5 -86zM731 45q87 0 165.5 36.5t139.5 113t96 199t35 284.5q0 323 -128 478t-308 155q-179 0 -307.5 -155t-128.5 -478q0 -162 34.5 -283t97 -199.5t140 -114.5t164.5 -36z" />
    <glyph glyph-name="ucth" unicode="&#x1b0;" 
d="M981 102v-28q-88 -23 -285 -92l-4 4v170l-88 -88q-53 -53 -111 -70.5t-104 -17.5q-53 0 -108 23.5t-95.5 83.5t-40.5 159v516q0 82 -32 104.5t-95 26.5v29h299v-668q0 -44 34 -100t120 -56q88 0 178 74q33 28 33 104v482q0 70 -26.5 98t-125.5 31v35h324v-263
q43 0 92 29.5t49 48.5q-69 0 -69 97q0 39 22 63.5t60 24.5q37 0 64 -27.5t28 -65.5q-1 -98 -74 -162.5t-172 -64.5v-383q0 -46 7 -68.5t34 -35.5t86 -13z" />
    <glyph glyph-name="uchoa" unicode="&#x1af;" horiz-adv-x="1495" 
d="M1231 1356h20v-269q44 0 93 29.5t49 48.5q-70 0 -70 97q0 39 22 63.5t60 24.5q37 0 64 -27.5t28 -65.5q-1 -98 -74 -162.5t-172 -64.5v-510q0 -133 -27 -247t-144 -208t-359 -94q-176 0 -282.5 59t-154.5 145t-59.5 163.5t-11.5 155.5v639q0 78 -14 114.5t-52 50.5
t-118 19v39h579v-39q-82 -6 -121 -21.5t-52 -52t-13 -110.5v-656q0 -75 7 -135.5t41 -127.5t109 -110t199 -43q114 0 203 44.5t133 117.5q47 78 47 279v553q0 158 -39.5 207t-152.5 55v39h262z" />
    <glyph glyph-name="aath" unicode="&#x103;" horiz-adv-x="909" 
d="M588 252v297q-202 -67 -267 -140t-65 -147v-4q0 -70 38.5 -115t96.5 -45q29 0 68 13t59 24q31 15 46.5 30.5t19.5 35t4 51.5zM905 135v-53q-56 -65 -99.5 -83.5t-82.5 -18.5q-123 0 -133 149q-71 -64 -145 -106.5t-152 -42.5q-89 0 -153 57.5t-64 155.5q0 75 32 130
t93 96.5t149 81t238 97.5v125q0 98 -47.5 134t-110.5 36q-55 0 -100 -27.5t-45 -72.5q0 -10 5 -39t5 -41q0 -32 -26 -60t-66 -28q-44 0 -66 29.5t-22 60.5q0 78 86.5 152.5t247.5 74.5q139 0 206.5 -51.5t83 -118.5t15.5 -158v-399q0 -59 10 -89t49 -30q44 0 92 39z
M659 1311h56q-30 -277 -262 -277q-69 0 -126.5 30t-92.5 93t-35 152h53q14 -80 65 -124t138 -44q64 0 103.5 22.5t59 56t41.5 91.5z" />
    <glyph glyph-name="aahoa" unicode="&#x102;" horiz-adv-x="1479" 
d="M1446 39v-39h-522v39q70 0 106.5 14t36.5 64q0 35 -39 129l-84 196h-536l-95 -239q-16 -43 -16 -78q0 -55 41.5 -70.5t97.5 -15.5v-39h-405v39q65 4 104 45q45 49 150 291l426 1005h41l510 -1163q36 -81 58.5 -114.5t50.5 -47t75 -16.5zM442 526h473l-237 564zM936 1735
h55q-6 -54 -23.5 -113.5t-74.5 -111.5t-164 -52q-69 0 -126.5 30t-92.5 93t-35 152h53q30 -168 203 -168q92 0 132 42.5t73 127.5z" />
    <glyph glyph-name="abth" horiz-adv-x="909" 
d="M588 252v297q-202 -67 -267 -140t-65 -147v-4q0 -70 38.5 -115t96.5 -45q29 0 68 13t59 24q31 15 46.5 30.5t19.5 35t4 51.5zM905 135v-53q-56 -65 -99.5 -83.5t-82.5 -18.5q-123 0 -133 149q-71 -64 -145 -106.5t-152 -42.5q-89 0 -153 57.5t-64 155.5q0 75 32 130
t93 96.5t149 81t238 97.5v125q0 98 -47.5 134t-110.5 36q-55 0 -100 -27.5t-45 -72.5q0 -10 5 -39t5 -41q0 -32 -26 -60t-66 -28q-44 0 -66 29.5t-22 60.5q0 78 86.5 152.5t247.5 74.5q139 0 206.5 -51.5t83 -118.5t15.5 -158v-399q0 -59 10 -89t49 -30q44 0 92 39z
M731 1024h-63l-224 180l-221 -180h-61l227 293h113z" />
    <glyph glyph-name="abhoa" horiz-adv-x="1479" 
d="M1446 39v-39h-522v39q70 0 106.5 14t36.5 64q0 35 -39 129l-84 196h-536l-95 -239q-16 -43 -16 -78q0 -55 41.5 -70.5t97.5 -15.5v-39h-405v39q65 4 104 45q45 49 150 291l426 1005h41l510 -1163q36 -81 58.5 -114.5t50.5 -47t75 -16.5zM442 526h473l-237 564zM1008 1458
h-64l-223 180l-221 -180h-62l228 293h112z" />
    <glyph glyph-name="ebth" horiz-adv-x="909" 
d="M836 336l32 -14q-20 -59 -66.5 -134.5t-141.5 -141.5t-226 -66q-114 0 -201 54.5t-134.5 157.5t-47.5 246q0 135 40 232.5t103 157t136.5 87t138.5 27.5q154 0 249 -91.5t111 -283.5h-636q11 -168 61 -268.5t118.5 -139t145.5 -38.5q119 0 189.5 61.5t128.5 153.5z
M199 633h422q-15 107 -52.5 171t-144.5 64q-90 0 -146 -53t-79 -182zM723 1032h-64l-223 180l-221 -180h-61l227 293h113z" />
    <glyph glyph-name="ebhoa" horiz-adv-x="1251" 
d="M1223 346l-93 -346h-1105v39q72 5 108.5 18t53 50.5t16.5 115.5v910q0 80 -17 116.5t-53.5 49.5t-107.5 18v39h1087l6 -293h-51q-15 92 -44.5 137.5t-89.5 61.5t-177 16h-277q-38 0 -52.5 -10.5t-14.5 -59.5v-454h315q69 0 109 10t62 31.5t34 59t20 93.5h47v-475h-47
q-13 85 -32.5 125t-60 54t-132.5 16l-315 4v-508q0 -47 14 -62.5t68 -19.5t223 -4q98 0 167 13t119.5 43.5t89.5 82.5t72 129h58zM905 1444h-63l-224 180l-221 -180h-61l227 293h113z" />
    <glyph glyph-name="obth" 
d="M502 942q100 0 184 -31.5t147.5 -95t96.5 -151.5t33 -197q0 -108 -51.5 -221.5t-154.5 -189.5t-249 -76q-130 0 -232 63.5t-159.5 174.5t-57.5 249q0 93 31 181t88.5 152.5t141 103t182.5 38.5zM537 37q59 0 113.5 34t91 117t36.5 220q0 131 -34 238.5t-101.5 173
t-157.5 65.5q-66 0 -121 -36.5t-87.5 -108t-32.5 -175.5q0 -101 25 -222t91 -213.5t177 -92.5zM803 1030h-64l-223 180l-221 -180h-62l228 293h112z" />
    <glyph glyph-name="obhoa" horiz-adv-x="1479" 
d="M739 -29q-184 0 -337.5 86t-242.5 246.5t-89 372.5q0 169 55.5 304t150 224t215 134.5t248.5 45.5q127 0 249.5 -46t215.5 -134t149 -223.5t56 -304.5q0 -212 -88.5 -372.5t-243 -246.5t-338.5 -86zM739 45q119 0 218.5 66.5t159 209t59.5 357.5q0 323 -128.5 478
t-308.5 155q-179 0 -307.5 -155t-128.5 -478q0 -162 34.5 -283t97 -199.5t140 -114.5t164.5 -36zM1026 1458h-63l-224 180l-221 -180h-61l227 293h113z" />
    <glyph glyph-name="athsac" horiz-adv-x="909" 
d="M588 252v297q-202 -67 -267 -140t-65 -147v-4q0 -70 38.5 -115t96.5 -45q29 0 68 13t59 24q31 15 46.5 30.5t19.5 35t4 51.5zM905 135v-53q-56 -65 -99.5 -83.5t-82.5 -18.5q-123 0 -133 149q-71 -64 -145 -106.5t-152 -42.5q-89 0 -153 57.5t-64 155.5q0 75 32 130
t93 96.5t149 81t238 97.5v125q0 98 -47.5 134t-110.5 36q-55 0 -100 -27.5t-45 -72.5q0 -10 5 -39t5 -41q0 -32 -26 -60t-66 -28q-44 0 -66 29.5t-22 60.5q0 78 86.5 152.5t247.5 74.5q139 0 206.5 -51.5t83 -118.5t15.5 -158v-399q0 -59 10 -89t49 -30q44 0 92 39z
M375 1049h-66l269 268q27 28 41.5 34.5t35.5 6.5q37 0 47.5 -20t10.5 -38q0 -44 -56 -73z" />
    <glyph glyph-name="athhuyen" horiz-adv-x="909" 
d="M588 252v297q-202 -67 -267 -140t-65 -147v-4q0 -70 38.5 -115t96.5 -45q29 0 68 13t59 24q31 15 46.5 30.5t19.5 35t4 51.5zM905 135v-53q-56 -65 -99.5 -83.5t-82.5 -18.5q-123 0 -133 149q-71 -64 -145 -106.5t-152 -42.5q-89 0 -153 57.5t-64 155.5q0 75 32 130
t93 96.5t149 81t238 97.5v125q0 98 -47.5 134t-110.5 36q-55 0 -100 -27.5t-45 -72.5q0 -10 5 -39t5 -41q0 -32 -26 -60t-66 -28q-44 0 -66 29.5t-22 60.5q0 78 86.5 152.5t247.5 74.5q139 0 206.5 -51.5t83 -118.5t15.5 -158v-399q0 -59 10 -89t49 -30q44 0 92 39z
M664 1040h-72l-281 183q-51 36 -51 75q0 15 10 35.5t45 20.5q23 0 35.5 -6.5t42.5 -34.5z" />
    <glyph glyph-name="athhoi" unicode="&#x1ea3;" horiz-adv-x="909" 
d="M588 252v297q-202 -67 -267 -140t-65 -147v-4q0 -70 38.5 -115t96.5 -45q29 0 68 13t59 24q31 15 46.5 30.5t19.5 35t4 51.5zM905 135v-53q-56 -65 -99.5 -83.5t-82.5 -18.5q-123 0 -133 149q-71 -64 -145 -106.5t-152 -42.5q-89 0 -153 57.5t-64 155.5q0 75 32 130
t93 96.5t149 81t238 97.5v125q0 98 -47.5 134t-110.5 36q-55 0 -100 -27.5t-45 -72.5q0 -10 5 -39t5 -41q0 -32 -26 -60t-66 -28q-44 0 -66 29.5t-22 60.5q0 78 86.5 152.5t247.5 74.5q139 0 206.5 -51.5t83 -118.5t15.5 -158v-399q0 -59 10 -89t49 -30q44 0 92 39z
M383 1409h-4q-55 -17 -55 -47q0 -12 12.5 -27.5t13.5 -29.5q0 -26 -19 -44t-42 -18q-49 0 -49 62q5 68 52.5 114.5t139.5 46.5q95 -3 149.5 -36.5t61.5 -120.5q0 -54 -41.5 -102t-77.5 -66q-17 -13 -30.5 -22.5t-21.5 -24t-9 -39.5h-68q3 50 29.5 81.5t58 64t33.5 65.5
q0 143 -133 143z" />
    <glyph glyph-name="athnga" horiz-adv-x="909" 
d="M588 252v297q-202 -67 -267 -140t-65 -147v-4q0 -70 38.5 -115t96.5 -45q29 0 68 13t59 24q31 15 46.5 30.5t19.5 35t4 51.5zM905 135v-53q-56 -65 -99.5 -83.5t-82.5 -18.5q-123 0 -133 149q-71 -64 -145 -106.5t-152 -42.5q-89 0 -153 57.5t-64 155.5q0 75 32 130
t93 96.5t149 81t238 97.5v125q0 98 -47.5 134t-110.5 36q-55 0 -100 -27.5t-45 -72.5q0 -10 5 -39t5 -41q0 -32 -26 -60t-66 -28q-44 0 -66 29.5t-22 60.5q0 78 86.5 152.5t247.5 74.5q139 0 206.5 -51.5t83 -118.5t15.5 -158v-399q0 -59 10 -89t49 -30q44 0 92 39z
M733 1243h53q-21 -82 -60 -138t-132 -56q-34 0 -58.5 8t-86.5 35l-41 18q-38 18 -64 18q-46 0 -66.5 -24t-31.5 -60h-53q8 45 30.5 87t64 70t97.5 28t117 -31l43 -20q49 -27 84 -27q37 0 59.5 19t44.5 73z" />
    <glyph glyph-name="athnang" unicode="&#x1ea1;" horiz-adv-x="909" 
d="M588 252v297q-202 -67 -267 -140t-65 -147v-4q0 -70 38.5 -115t96.5 -45q29 0 68 13t59 24q31 15 46.5 30.5t19.5 35t4 51.5zM905 135v-53q-56 -65 -99.5 -83.5t-82.5 -18.5q-123 0 -133 149q-71 -64 -145 -106.5t-152 -42.5q-89 0 -153 57.5t-64 155.5q0 75 32 130
t93 96.5t149 81t238 97.5v125q0 98 -47.5 134t-110.5 36q-55 0 -100 -27.5t-45 -72.5q0 -10 5 -39t5 -41q0 -32 -26 -60t-66 -28q-44 0 -66 29.5t-22 60.5q0 78 86.5 152.5t247.5 74.5q139 0 206.5 -51.5t83 -118.5t15.5 -158v-399q0 -59 10 -89t49 -30q44 0 92 39z
M367 -215q0 32 23.5 62t66.5 30q41 0 67.5 -26.5t26.5 -65.5q0 -38 -27 -65t-67 -27q-44 0 -67 30t-23 62z" />
    <glyph glyph-name="ahoasac" horiz-adv-x="1479" 
d="M1446 39v-39h-522v39q70 0 106.5 14t36.5 64q0 35 -39 129l-84 196h-536l-95 -239q-16 -43 -16 -78q0 -55 41.5 -70.5t97.5 -15.5v-39h-405v39q65 4 104 45q45 49 150 291l426 1005h41l510 -1163q36 -81 58.5 -114.5t50.5 -47t75 -16.5zM442 526h473l-237 564zM633 1487
h-66l269 268q28 28 42 34.5t35 6.5q37 0 47.5 -20t10.5 -37q0 -45 -56 -74z" />
    <glyph glyph-name="ahoahuyen" horiz-adv-x="1479" 
d="M1446 39v-39h-522v39q70 0 106.5 14t36.5 64q0 35 -39 129l-84 196h-536l-95 -239q-16 -43 -16 -78q0 -55 41.5 -70.5t97.5 -15.5v-39h-405v39q65 4 104 45q45 49 150 291l426 1005h41l510 -1163q36 -81 58.5 -114.5t50.5 -47t75 -16.5zM442 526h473l-237 564zM860 1479
h-72l-280 182q-51 34 -51 76q0 15 10 35t45 20q23 0 35.5 -6.5t42.5 -34.5z" />
    <glyph glyph-name="ahoahoi" unicode="&#x1ea2;" horiz-adv-x="1479" 
d="M1446 39v-39h-522v39q70 0 106.5 14t36.5 64q0 35 -39 129l-84 196h-536l-95 -239q-16 -43 -16 -78q0 -55 41.5 -70.5t97.5 -15.5v-39h-405v39q65 4 104 45q45 49 150 291l426 1005h41l510 -1163q36 -81 58.5 -114.5t50.5 -47t75 -16.5zM442 526h473l-237 564zM672 1837
h-4q-56 -18 -56 -47q0 -13 13 -29t14 -28q0 -26 -19 -44t-42 -18q-50 0 -50 62q7 69 54 115t139 46q94 -3 149 -36.5t62 -120.5q0 -54 -41.5 -102t-77.5 -66q-16 -12 -29.5 -21.5t-22 -23t-9.5 -41.5h-68q3 50 29.5 81.5t58 64t33.5 65.5q0 143 -133 143z" />
    <glyph glyph-name="ahoanga" horiz-adv-x="1479" 
d="M1446 39v-39h-522v39q70 0 106.5 14t36.5 64q0 35 -39 129l-84 196h-536l-95 -239q-16 -43 -16 -78q0 -55 41.5 -70.5t97.5 -15.5v-39h-405v39q65 4 104 45q45 49 150 291l426 1005h41l510 -1163q36 -81 58.5 -114.5t50.5 -47t75 -16.5zM442 526h473l-237 564zM981 1681
h53q-21 -82 -60 -138t-132 -56q-35 0 -60.5 8t-85.5 35l-41 18q-35 19 -63 19q-47 0 -66.5 -24t-31.5 -60h-54q15 74 62 129t131 55q56 0 117 -31l43 -20q54 -27 84 -27q37 0 59.5 19.5t44.5 72.5z" />
    <glyph glyph-name="ahoanang" unicode="&#x1ea0;" horiz-adv-x="1479" 
d="M1446 39v-39h-522v39q70 0 106.5 14t36.5 64q0 35 -39 129l-84 196h-536l-95 -239q-16 -43 -16 -78q0 -55 41.5 -70.5t97.5 -15.5v-39h-405v39q65 4 104 45q45 49 150 291l426 1005h41l510 -1163q36 -81 58.5 -114.5t50.5 -47t75 -16.5zM442 526h473l-237 564zM635 -225
q0 19 10 41t30 36.5t50 14.5q41 0 67.5 -26.5t26.5 -65.5q0 -40 -27 -66t-67 -26q-44 0 -67 30t-23 62z" />
    <glyph glyph-name="ethsac" horiz-adv-x="909" 
d="M836 336l32 -14q-20 -59 -66.5 -134.5t-141.5 -141.5t-226 -66q-114 0 -201 54.5t-134.5 157.5t-47.5 246q0 135 40 232.5t103 157t136.5 87t138.5 27.5q154 0 249 -91.5t111 -283.5h-636q11 -168 61 -268.5t118.5 -139t145.5 -38.5q119 0 189.5 61.5t128.5 153.5z
M199 633h422q-15 107 -52.5 171t-144.5 64q-90 0 -146 -53t-79 -182zM385 1049h-66l269 268q28 28 42 34.5t36 6.5q36 0 46.5 -20t10.5 -38q0 -42 -55 -73z" />
    <glyph glyph-name="ethhuyen" horiz-adv-x="909" 
d="M836 336l32 -14q-20 -59 -66.5 -134.5t-141.5 -141.5t-226 -66q-114 0 -201 54.5t-134.5 157.5t-47.5 246q0 135 40 232.5t103 157t136.5 87t138.5 27.5q154 0 249 -91.5t111 -283.5h-636q11 -168 61 -268.5t118.5 -139t145.5 -38.5q119 0 189.5 61.5t128.5 153.5z
M199 633h422q-15 107 -52.5 171t-144.5 64q-90 0 -146 -53t-79 -182zM643 1040h-72l-280 183q-51 34 -51 75q0 15 10 35.5t45 20.5q23 0 35.5 -6.5t42.5 -34.5z" />
    <glyph glyph-name="ethhoi" unicode="&#x1ebb;" horiz-adv-x="909" 
d="M836 336l32 -14q-20 -59 -66.5 -134.5t-141.5 -141.5t-226 -66q-114 0 -201 54.5t-134.5 157.5t-47.5 246q0 135 40 232.5t103 157t136.5 87t138.5 27.5q154 0 249 -91.5t111 -283.5h-636q11 -168 61 -268.5t118.5 -139t145.5 -38.5q119 0 189.5 61.5t128.5 153.5z
M199 633h422q-15 107 -52.5 171t-144.5 64q-90 0 -146 -53t-79 -182zM393 1399h-4q-55 -18 -55 -47q0 -12 12.5 -28.5t13.5 -29.5q0 -28 -18 -44.5t-43 -16.5q-49 0 -49 61q5 69 52.5 115.5t139.5 46.5q96 -3 150 -37t61 -121q0 -55 -38.5 -99.5t-79.5 -68.5
q-10 -8 -28 -20.5t-25.5 -26t-8.5 -39.5h-67q3 49 29 81t57.5 65.5t33.5 64.5q0 144 -133 144z" />
    <glyph glyph-name="ethnga" unicode="&#x1ebd;" horiz-adv-x="909" 
d="M836 336l32 -14q-20 -59 -66.5 -134.5t-141.5 -141.5t-226 -66q-114 0 -201 54.5t-134.5 157.5t-47.5 246q0 135 40 232.5t103 157t136.5 87t138.5 27.5q154 0 249 -91.5t111 -283.5h-636q11 -168 61 -268.5t118.5 -139t145.5 -38.5q119 0 189.5 61.5t128.5 153.5z
M199 633h422q-15 107 -52.5 171t-144.5 64q-90 0 -146 -53t-79 -182zM702 1243h54q-20 -79 -60 -136.5t-133 -57.5q-34 0 -58.5 8t-86.5 35l-41 18q-38 18 -64 18q-71 0 -98 -84h-53q8 45 30.5 87t64 70t97.5 28t117 -31l43 -20q52 -27 84 -27q37 0 59.5 19t44.5 73z" />
    <glyph glyph-name="ethnang" unicode="&#x1eb9;" horiz-adv-x="909" 
d="M836 336l32 -14q-20 -59 -66.5 -134.5t-141.5 -141.5t-226 -66q-114 0 -201 54.5t-134.5 157.5t-47.5 246q0 135 40 232.5t103 157t136.5 87t138.5 27.5q154 0 249 -91.5t111 -283.5h-636q11 -168 61 -268.5t118.5 -139t145.5 -38.5q119 0 189.5 61.5t128.5 153.5z
M199 633h422q-15 107 -52.5 171t-144.5 64q-90 0 -146 -53t-79 -182zM336 -215q0 32 23.5 62t66.5 30q41 0 67.5 -26.5t26.5 -65.5q0 -38 -27 -65t-67 -27q-44 0 -67 30t-23 62z" />
    <glyph glyph-name="ehoasac" horiz-adv-x="1251" 
d="M1223 346l-93 -346h-1105v39q72 5 108.5 18t53 50.5t16.5 115.5v910q0 80 -17 116.5t-53.5 49.5t-107.5 18v39h1087l6 -293h-51q-15 92 -44.5 137.5t-89.5 61.5t-177 16h-277q-38 0 -52.5 -10.5t-14.5 -59.5v-454h315q69 0 109 10t62 31.5t34 59t20 93.5h47v-475h-47
q-13 85 -32.5 125t-60 54t-132.5 16l-315 4v-508q0 -47 14 -62.5t68 -19.5t223 -4q98 0 167 13t119.5 43.5t89.5 82.5t72 129h58zM600 1462h-65l268 269q28 28 42 34.5t36 6.5q36 0 46.5 -20t10.5 -38q0 -27 -14.5 -42t-40.5 -32z" />
    <glyph glyph-name="ehoahuyen" horiz-adv-x="1251" 
d="M1223 346l-93 -346h-1105v39q72 5 108.5 18t53 50.5t16.5 115.5v910q0 80 -17 116.5t-53.5 49.5t-107.5 18v39h1087l6 -293h-51q-15 92 -44.5 137.5t-89.5 61.5t-177 16h-277q-38 0 -52.5 -10.5t-14.5 -59.5v-454h315q69 0 109 10t62 31.5t34 59t20 93.5h47v-475h-47
q-13 85 -32.5 125t-60 54t-132.5 16l-315 4v-508q0 -47 14 -62.5t68 -19.5t223 -4q98 0 167 13t119.5 43.5t89.5 82.5t72 129h58zM766 1454h-72l-280 182q-52 37 -52 76q0 15 10 35t46 20q22 0 35 -6.5t43 -34.5z" />
    <glyph glyph-name="ehoahoi" unicode="&#x1eba;" horiz-adv-x="1251" 
d="M1223 346l-93 -346h-1105v39q72 5 108.5 18t53 50.5t16.5 115.5v910q0 80 -17 116.5t-53.5 49.5t-107.5 18v39h1087l6 -293h-51q-15 92 -44.5 137.5t-89.5 61.5t-177 16h-277q-38 0 -52.5 -10.5t-14.5 -59.5v-454h315q69 0 109 10t62 31.5t34 59t20 93.5h47v-475h-47
q-13 85 -32.5 125t-60 54t-132.5 16l-315 4v-508q0 -47 14 -62.5t68 -19.5t223 -4q98 0 167 13t119.5 43.5t89.5 82.5t72 129h58zM557 1812h-4q-55 -18 -55 -47q0 -11 12.5 -27.5t13.5 -29.5q0 -28 -18 -44.5t-43 -16.5q-49 0 -49 61q5 69 52.5 115.5t139.5 46.5
q96 -3 150 -37t61 -121q0 -55 -40.5 -101t-78.5 -67q-6 -5 -25.5 -19t-27 -27.5t-8.5 -39.5h-68q3 49 29.5 81.5t58 64.5t33.5 65q0 143 -133 143z" />
    <glyph glyph-name="ehoanga" unicode="&#x1ebc;" horiz-adv-x="1251" 
d="M1223 346l-93 -346h-1105v39q72 5 108.5 18t53 50.5t16.5 115.5v910q0 80 -17 116.5t-53.5 49.5t-107.5 18v39h1087l6 -293h-51q-15 92 -44.5 137.5t-89.5 61.5t-177 16h-277q-38 0 -52.5 -10.5t-14.5 -59.5v-454h315q69 0 109 10t62 31.5t34 59t20 93.5h47v-475h-47
q-13 85 -32.5 125t-60 54t-132.5 16l-315 4v-508q0 -47 14 -62.5t68 -19.5t223 -4q98 0 167 13t119.5 43.5t89.5 82.5t72 129h58zM866 1657h54q-20 -79 -60 -137t-133 -58q-34 0 -58.5 8t-86.5 35l-41 19q-38 18 -64 18q-71 0 -98 -84h-53q8 45 30.5 87t63 69.5t98.5 27.5
q55 0 117 -30l43 -21q52 -26 84 -26q37 0 59.5 19t44.5 73z" />
    <glyph glyph-name="ehoanang" unicode="&#x1eb8;" horiz-adv-x="1251" 
d="M1223 346l-93 -346h-1105v39q72 5 108.5 18t53 50.5t16.5 115.5v910q0 80 -17 116.5t-53.5 49.5t-107.5 18v39h1087l6 -293h-51q-15 92 -44.5 137.5t-89.5 61.5t-177 16h-277q-38 0 -52.5 -10.5t-14.5 -59.5v-454h315q69 0 109 10t62 31.5t34 59t20 93.5h47v-475h-47
q-13 85 -32.5 125t-60 54t-132.5 16l-315 4v-508q0 -47 14 -62.5t68 -19.5t223 -4q98 0 167 13t119.5 43.5t89.5 82.5t72 129h58zM520 -215q0 19 10 41t30 36.5t50 14.5q43 0 69 -26t26 -66q0 -39 -26.5 -65.5t-68.5 -26.5q-31 0 -51 14.5t-29.5 36t-9.5 41.5z" />
    <glyph glyph-name="othsac" 
d="M502 942q100 0 184 -31.5t147.5 -95t96.5 -151.5t33 -197q0 -108 -51.5 -221.5t-154.5 -189.5t-249 -76q-130 0 -232 63.5t-159.5 174.5t-57.5 249q0 93 31 181t88.5 152.5t141 103t182.5 38.5zM537 37q59 0 113.5 34t91 117t36.5 220q0 131 -34 238.5t-101.5 173
t-157.5 65.5q-66 0 -121 -36.5t-87.5 -108t-32.5 -175.5q0 -101 25 -222t91 -213.5t177 -92.5zM416 1038h-66l268 269q28 28 42.5 34.5t35.5 6.5q37 0 47.5 -20t10.5 -38q0 -44 -56 -73z" />
    <glyph glyph-name="othhuyen" 
d="M502 942q100 0 184 -31.5t147.5 -95t96.5 -151.5t33 -197q0 -108 -51.5 -221.5t-154.5 -189.5t-249 -76q-130 0 -232 63.5t-159.5 174.5t-57.5 249q0 93 31 181t88.5 152.5t141 103t182.5 38.5zM537 37q59 0 113.5 34t91 117t36.5 220q0 131 -34 238.5t-101.5 173
t-157.5 65.5q-66 0 -121 -36.5t-87.5 -108t-32.5 -175.5q0 -101 25 -222t91 -213.5t177 -92.5zM694 1030h-71l-281 182q-51 38 -51 76q0 15 10 35t45 20q23 0 35 -6t43 -34z" />
    <glyph glyph-name="othhoi" unicode="&#x1ecf;" 
d="M502 942q100 0 184 -31.5t147.5 -95t96.5 -151.5t33 -197q0 -108 -51.5 -221.5t-154.5 -189.5t-249 -76q-130 0 -232 63.5t-159.5 174.5t-57.5 249q0 93 31 181t88.5 152.5t141 103t182.5 38.5zM537 37q59 0 113.5 34t91 117t36.5 220q0 131 -34 238.5t-101.5 173
t-157.5 65.5q-66 0 -121 -36.5t-87.5 -108t-32.5 -175.5q0 -101 25 -222t91 -213.5t177 -92.5zM444 1399h-4q-55 -18 -55 -47q0 -13 13 -30.5t14 -27.5q0 -27 -19 -44t-43 -17q-20 0 -34.5 14.5t-14.5 46.5q5 69 52.5 115.5t140.5 46.5q95 -3 149.5 -37.5t61.5 -120.5
q0 -55 -40.5 -101t-78.5 -67q-10 -8 -28 -20.5t-25.5 -26t-8.5 -39.5h-67q3 49 29 81t58 66t34 64q0 144 -134 144z" />
    <glyph glyph-name="othnga" 
d="M502 942q100 0 184 -31.5t147.5 -95t96.5 -151.5t33 -197q0 -108 -51.5 -221.5t-154.5 -189.5t-249 -76q-130 0 -232 63.5t-159.5 174.5t-57.5 249q0 93 31 181t88.5 152.5t141 103t182.5 38.5zM537 37q59 0 113.5 34t91 117t36.5 220q0 131 -34 238.5t-101.5 173
t-157.5 65.5q-66 0 -121 -36.5t-87.5 -108t-32.5 -175.5q0 -101 25 -222t91 -213.5t177 -92.5zM754 1243h53q-21 -81 -60.5 -137.5t-132.5 -56.5q-34 0 -58.5 8t-86.5 35l-41 18q-36 18 -63 18q-72 0 -99 -84h-53q13 71 61 128t132 57q55 0 116 -31l43 -20q52 -27 84 -27
q37 0 60 19t45 73z" />
    <glyph glyph-name="othnang" unicode="&#x1ecd;" 
d="M502 942q100 0 184 -31.5t147.5 -95t96.5 -151.5t33 -197q0 -108 -51.5 -221.5t-154.5 -189.5t-249 -76q-130 0 -232 63.5t-159.5 174.5t-57.5 249q0 93 31 181t88.5 152.5t141 103t182.5 38.5zM537 37q59 0 113.5 34t91 117t36.5 220q0 131 -34 238.5t-101.5 173
t-157.5 65.5q-66 0 -121 -36.5t-87.5 -108t-32.5 -175.5q0 -101 25 -222t91 -213.5t177 -92.5zM418 -215q0 32 23.5 62t66.5 30q41 0 67.5 -26.5t26.5 -65.5q0 -38 -27 -65t-67 -27q-44 0 -67 30t-23 62z" />
    <glyph glyph-name="ohoasac" horiz-adv-x="1479" 
d="M739 -29q-184 0 -337.5 86t-242.5 246.5t-89 372.5q0 169 55.5 304t150 224t215 134.5t248.5 45.5q127 0 249.5 -46t215.5 -134t149 -223.5t56 -304.5q0 -212 -88.5 -372.5t-243 -246.5t-338.5 -86zM739 45q119 0 218.5 66.5t159 209t59.5 357.5q0 323 -128.5 478
t-308.5 155q-179 0 -307.5 -155t-128.5 -478q0 -162 34.5 -283t97 -199.5t140 -114.5t164.5 -36zM707 1501h-66l268 268q28 28 42.5 34.5t35.5 6.5q36 0 46.5 -20t10.5 -37q0 -42 -55 -74z" />
    <glyph glyph-name="ohoahuyen" horiz-adv-x="1479" 
d="M739 -29q-184 0 -337.5 86t-242.5 246.5t-89 372.5q0 169 55.5 304t150 224t215 134.5t248.5 45.5q127 0 249.5 -46t215.5 -134t149 -223.5t56 -304.5q0 -212 -88.5 -372.5t-243 -246.5t-338.5 -86zM739 45q119 0 218.5 66.5t159 209t59.5 357.5q0 323 -128.5 478
t-308.5 155q-179 0 -307.5 -155t-128.5 -478q0 -162 34.5 -283t97 -199.5t140 -114.5t164.5 -36zM975 1483h-72l-280 182q-52 35 -52 76q0 15 10 35t46 20q22 0 33.5 -5.5t44.5 -35.5z" />
    <glyph glyph-name="ohoahoi" unicode="&#x1ece;" horiz-adv-x="1479" 
d="M739 -29q-184 0 -337.5 86t-242.5 246.5t-89 372.5q0 169 55.5 304t150 224t215 134.5t248.5 45.5q127 0 249.5 -46t215.5 -134t149 -223.5t56 -304.5q0 -212 -88.5 -372.5t-243 -246.5t-338.5 -86zM739 45q119 0 218.5 66.5t159 209t59.5 357.5q0 323 -128.5 478
t-308.5 155q-179 0 -307.5 -155t-128.5 -478q0 -162 34.5 -283t97 -199.5t140 -114.5t164.5 -36zM674 1841h-4q-56 -18 -56 -47q0 -11 13 -28t14 -29q0 -26 -19 -44t-42 -18q-50 0 -50 62q7 69 54 115t139 46q95 -3 149.5 -36.5t61.5 -120.5q0 -54 -41.5 -102t-77.5 -66
q-16 -12 -29.5 -21.5t-22 -23t-9.5 -41.5h-68q3 49 29.5 81.5t58 64.5t33.5 65q0 143 -133 143z" />
    <glyph glyph-name="ohoanga" horiz-adv-x="1479" 
d="M739 -29q-184 0 -337.5 86t-242.5 246.5t-89 372.5q0 169 55.5 304t150 224t215 134.5t248.5 45.5q127 0 249.5 -46t215.5 -134t149 -223.5t56 -304.5q0 -212 -88.5 -372.5t-243 -246.5t-338.5 -86zM739 45q119 0 218.5 66.5t159 209t59.5 357.5q0 323 -128.5 478
t-308.5 155q-179 0 -307.5 -155t-128.5 -478q0 -162 34.5 -283t97 -199.5t140 -114.5t164.5 -36zM983 1686h53q-20 -82 -59.5 -138.5t-132.5 -56.5q-35 0 -60.5 8t-85.5 35l-41 18q-35 19 -63 19q-46 0 -66.5 -24t-31.5 -60h-54q15 74 62 129t131 55q56 0 117 -31l43 -20
q54 -27 84 -27q37 0 59.5 19.5t44.5 73.5z" />
    <glyph glyph-name="ohoanang" unicode="&#x1ecc;" horiz-adv-x="1479" 
d="M739 -29q-184 0 -337.5 86t-242.5 246.5t-89 372.5q0 169 55.5 304t150 224t215 134.5t248.5 45.5q127 0 249.5 -46t215.5 -134t149 -223.5t56 -304.5q0 -212 -88.5 -372.5t-243 -246.5t-338.5 -86zM739 45q119 0 218.5 66.5t159 209t59.5 357.5q0 323 -128.5 478
t-308.5 155q-179 0 -307.5 -155t-128.5 -478q0 -162 34.5 -283t97 -199.5t140 -114.5t164.5 -36zM647 -223q0 19 10 41t30 36.5t50 14.5q43 0 68.5 -25.5t25.5 -66.5q0 -40 -26 -66t-68 -26q-31 0 -51 14.5t-29.5 36t-9.5 41.5z" />
    <glyph glyph-name="ithsac" horiz-adv-x="569" 
d="M33 0v31q69 3 102 14.5t46.5 47.5t13.5 116v475q0 80 -18.5 101.5t-53.5 21.5q-28 0 -82 -8v30l317 113l9 -6v-727q0 -75 9 -109t39 -49t103 -20v-31h-485zM176 1079h-65l268 269q28 28 42 34.5t36 6.5q36 0 46.5 -20t10.5 -38q0 -27 -14.5 -42t-40.5 -32z" />
    <glyph glyph-name="ithhuyen" horiz-adv-x="569" 
d="M33 0v31q69 3 102 14.5t46.5 47.5t13.5 116v475q0 80 -18.5 101.5t-53.5 21.5q-28 0 -82 -8v30l317 113l9 -6v-727q0 -75 9 -109t39 -49t103 -20v-31h-485zM434 1092h-72l-280 182q-51 34 -51 76q0 15 10 35t45 20q23 0 35.5 -6.5t42.5 -34.5z" />
    <glyph glyph-name="ithhoi" unicode="&#x1ec9;" horiz-adv-x="569" 
d="M33 0v31q69 3 102 14.5t46.5 47.5t13.5 116v475q0 80 -18.5 101.5t-53.5 21.5q-28 0 -82 -8v30l317 113l9 -6v-727q0 -75 9 -109t39 -49t103 -20v-31h-485zM225 1430h-4q-55 -21 -55 -48q0 -11 13 -28t14 -29q0 -27 -19 -44t-43 -17q-49 0 -49 61q5 69 52.5 115.5
t139.5 46.5q96 -3 150 -37t61 -121q0 -55 -38.5 -99.5t-79.5 -68.5q-10 -8 -28 -20.5t-25.5 -26t-8.5 -39.5h-67q3 49 29.5 81.5t57.5 64.5t33 65q0 144 -133 144z" />
    <glyph glyph-name="ithnga" unicode="&#x129;" horiz-adv-x="569" 
d="M33 0v31q69 3 102 14.5t46.5 47.5t13.5 116v475q0 80 -18.5 101.5t-53.5 21.5q-28 0 -82 -8v30l317 113l9 -6v-727q0 -75 9 -109t39 -49t103 -20v-31h-485zM514 1274h53q-20 -82 -59.5 -138.5t-132.5 -56.5q-35 0 -60.5 8t-85.5 35l-41 19q-36 18 -63 18q-46 0 -66.5 -24
t-31.5 -60h-54q15 74 62 129.5t131 55.5q53 0 117 -31l43 -21q52 -26 84 -26q37 0 59.5 19t44.5 73z" />
    <glyph glyph-name="ithnang" unicode="&#x1ecb;" horiz-adv-x="569" 
d="M33 0v31q69 3 102 14.5t46.5 47.5t13.5 116v475q0 80 -18.5 101.5t-53.5 21.5q-28 0 -82 -8v30q106 36 172 60t145 53l9 -6v-727q0 -75 9 -109t39 -49t103 -20v-31h-485zM190 1212q0 31 23.5 62t67.5 31q41 0 67.5 -27.5t26.5 -65.5t-27 -65t-67 -27q-44 0 -67.5 30
t-23.5 62zM182 -236q0 19 10 41t30 37t50 15q43 0 69 -27t26 -66t-26.5 -65.5t-68.5 -26.5q-43 0 -66.5 30t-23.5 62z" />
    <glyph glyph-name="ihoasac" horiz-adv-x="682" 
d="M37 0v39q87 1 129 17t56 53.5t14 113.5v910q0 79 -14.5 115.5t-54 50t-130.5 18.5v39h608v-39q-83 -3 -123.5 -15.5t-59 -50.5t-18.5 -118v-910q0 -60 10.5 -95t33.5 -54t59 -26t98 -9v-39h-608zM225 1473h-65l268 268q28 28 42 34.5t36 6.5q36 0 46.5 -20t10.5 -38
q0 -42 -55 -73z" />
    <glyph glyph-name="ihoahuyen" horiz-adv-x="682" 
d="M37 0v39q87 1 129 17t56 53.5t14 113.5v910q0 79 -14.5 115.5t-54 50t-130.5 18.5v39h608v-39q-83 -3 -123.5 -15.5t-59 -50.5t-18.5 -118v-910q0 -60 10.5 -95t33.5 -54t59 -26t98 -9v-39h-608zM575 1454h-71l-281 182q-51 38 -51 76q0 15 10 35t45 20q23 0 35.5 -6.5
t42.5 -34.5z" />
    <glyph glyph-name="ihoahoi" unicode="&#x1ec8;" horiz-adv-x="682" 
d="M37 0v39q87 1 129 17t56 53.5t14 113.5v910q0 79 -14.5 115.5t-54 50t-130.5 18.5v39h608v-39q-83 -3 -123.5 -15.5t-59 -50.5t-18.5 -118v-910q0 -60 10.5 -95t33.5 -54t59 -26t98 -9v-39h-608zM274 1812h-4q-55 -18 -55 -47q0 -12 13 -29.5t14 -27.5q0 -27 -19 -44
t-43 -17q-20 0 -34.5 14.5t-14.5 46.5q5 69 52.5 115.5t140.5 46.5q95 -3 149.5 -37.5t61.5 -120.5q0 -55 -40.5 -101t-78.5 -67q-10 -8 -28 -20.5t-25.5 -26t-8.5 -39.5h-67q3 49 29.5 81.5t58 65t33.5 64.5q0 143 -134 143z" />
    <glyph glyph-name="ihoanga" unicode="&#x128;" horiz-adv-x="682" 
d="M37 0v39q87 1 129 17t56 53.5t14 113.5v910q0 79 -14.5 115.5t-54 50t-130.5 18.5v39h608v-39q-83 -3 -123.5 -15.5t-59 -50.5t-18.5 -118v-910q0 -60 10.5 -95t33.5 -54t59 -26t98 -9v-39h-608zM584 1657h53q-20 -82 -60 -138.5t-133 -56.5q-34 0 -58.5 8t-86.5 35
l-41 19q-36 18 -63 18q-72 0 -99 -84h-53q13 71 61 127.5t132 56.5q54 0 116 -30l43 -21q55 -26 84 -26q37 0 60 19t45 73z" />
    <glyph glyph-name="ihoanang" unicode="&#x1eca;" horiz-adv-x="682" 
d="M37 0v39q87 1 129 17t56 53.5t14 113.5v910q0 79 -14.5 115.5t-54 50t-130.5 18.5v39h608v-39q-83 -3 -123.5 -15.5t-59 -50.5t-18.5 -118v-910q0 -60 10.5 -95t33.5 -54t59 -26t98 -9v-39h-608zM248 -225q0 32 23.5 62t66.5 30q41 0 67.5 -26.5t26.5 -65.5
q0 -40 -27 -66t-67 -26q-44 0 -67 30t-23 62z" />
    <glyph glyph-name="uthsac" 
d="M981 102v-28q-88 -23 -285 -92l-4 4v170l-88 -88q-53 -53 -111 -70.5t-104 -17.5q-53 0 -108 23.5t-95.5 83.5t-40.5 159v516q0 82 -32 104.5t-95 26.5v29h299v-668q0 -44 34 -100t120 -56q88 0 178 74q33 28 33 104v482q0 70 -26.5 98t-125.5 31v35h324v-703
q0 -46 7 -68.5t34 -35.5t86 -13zM467 1038h-66l269 269q28 28 42 34.5t36 6.5q36 0 46.5 -20t10.5 -38q0 -42 -55 -73z" />
    <glyph glyph-name="uthhuyen" 
d="M981 102v-28q-88 -23 -285 -92l-4 4v170l-88 -88q-53 -53 -111 -70.5t-104 -17.5q-53 0 -108 23.5t-95.5 83.5t-40.5 159v516q0 82 -32 104.5t-95 26.5v29h299v-668q0 -44 34 -100t120 -56q88 0 178 74q33 28 33 104v482q0 70 -26.5 98t-125.5 31v35h324v-703
q0 -46 7 -68.5t34 -35.5t86 -13zM684 1040h-72l-280 183q-51 34 -51 75q0 15 10 35.5t45 20.5q23 0 35.5 -6.5t42.5 -34.5z" />
    <glyph glyph-name="uthhoi" unicode="&#x1ee7;" 
d="M981 102v-28q-88 -23 -285 -92l-4 4v170l-88 -88q-53 -53 -111 -70.5t-104 -17.5q-53 0 -108 23.5t-95.5 83.5t-40.5 159v516q0 82 -32 104.5t-95 26.5v29h299v-668q0 -44 34 -100t120 -56q88 0 178 74q33 28 33 104v482q0 70 -26.5 98t-125.5 31v35h324v-703
q0 -46 7 -68.5t34 -35.5t86 -13zM434 1378h-4q-55 -18 -55 -47q0 -10 12.5 -26.5t13.5 -30.5q0 -28 -18 -45t-43 -17q-49 0 -49 62q5 69 52.5 115.5t139.5 46.5q96 -3 150 -37t61 -121q0 -54 -41.5 -102t-77.5 -66q-17 -13 -30.5 -22.5t-21.5 -24t-9 -39.5h-68q2 48 28.5 80
t58.5 65t34 66q0 143 -133 143z" />
    <glyph glyph-name="uthnga" unicode="&#x169;" 
d="M981 102v-28q-88 -23 -285 -92l-4 4v170l-88 -88q-53 -53 -111 -70.5t-104 -17.5q-53 0 -108 23.5t-95.5 83.5t-40.5 159v516q0 82 -32 104.5t-95 26.5v29h299v-668q0 -44 34 -100t120 -56q88 0 178 74q33 28 33 104v482q0 70 -26.5 98t-125.5 31v35h324v-703
q0 -46 7 -68.5t34 -35.5t86 -13zM743 1223h54q-20 -79 -60 -137t-133 -58q-34 0 -58.5 8t-86.5 35l-41 19q-38 18 -64 18q-71 0 -98 -84h-53q8 45 30.5 87t63 69.5t98.5 27.5q55 0 117 -30l43 -21q54 -27 84 -27q37 0 59.5 19.5t44.5 73.5z" />
    <glyph glyph-name="uthnang" unicode="&#x1ee5;" 
d="M981 102v-28q-88 -23 -285 -92l-4 4v170l-88 -88q-53 -53 -111 -70.5t-104 -17.5q-53 0 -108 23.5t-95.5 83.5t-40.5 159v516q0 82 -32 104.5t-95 26.5v29h299v-668q0 -44 34 -100t120 -56q88 0 178 74q33 28 33 104v482q0 70 -26.5 98t-125.5 31v35h324v-703
q0 -46 7 -68.5t34 -35.5t86 -13zM408 -215q0 32 23.5 62t66.5 30q41 0 67.5 -26.5t26.5 -65.5q0 -38 -27 -65t-67 -27q-44 0 -67 30t-23 62z" />
    <glyph glyph-name="uhoasac" horiz-adv-x="1479" 
d="M1444 1356v-39q-64 -7 -99.5 -18.5t-56 -38t-29 -73.5t-8.5 -132v-535q0 -133 -27 -247t-144 -208t-359 -94q-176 0 -282.5 59t-154.5 145t-59.5 163.5t-11.5 155.5v639q0 78 -14 114.5t-52 50.5t-118 19v39h579v-39q-82 -6 -121 -21.5t-52 -52t-13 -110.5v-656
q0 -75 7 -135.5t41 -127.5t109 -110t199 -43q114 0 203 44.5t133 117.5q47 78 47 279v553q0 158 -39.5 207t-152.5 55v39h475zM764 1473h-66l269 268q28 28 42 34.5t35 6.5q37 0 47.5 -20t10.5 -38q0 -42 -55 -73z" />
    <glyph glyph-name="uhoahuyen" horiz-adv-x="1479" 
d="M1444 1356v-39q-64 -7 -99.5 -18.5t-56 -38t-29 -73.5t-8.5 -132v-535q0 -133 -27 -247t-144 -208t-359 -94q-176 0 -282.5 59t-154.5 145t-59.5 163.5t-11.5 155.5v639q0 78 -14 114.5t-52 50.5t-118 19v39h579v-39q-82 -6 -121 -21.5t-52 -52t-13 -110.5v-656
q0 -75 7 -135.5t41 -127.5t109 -110t199 -43q114 0 203 44.5t133 117.5q47 78 47 279v553q0 158 -39.5 207t-152.5 55v39h475zM930 1454h-72l-280 182q-52 37 -52 76q0 15 10 35t46 20q22 0 34.5 -6.5t42.5 -34.5z" />
    <glyph glyph-name="uhoahoi" unicode="&#x1ee6;" horiz-adv-x="1479" 
d="M1444 1356v-39q-64 -7 -99.5 -18.5t-56 -38t-29 -73.5t-8.5 -132v-535q0 -133 -27 -247t-144 -208t-359 -94q-176 0 -282.5 59t-154.5 145t-59.5 163.5t-11.5 155.5v639q0 78 -14 114.5t-52 50.5t-118 19v39h579v-39q-82 -6 -121 -21.5t-52 -52t-13 -110.5v-656
q0 -75 7 -135.5t41 -127.5t109 -110t199 -43q114 0 203 44.5t133 117.5q47 78 47 279v553q0 158 -39.5 207t-152.5 55v39h475zM711 1833h-4q-56 -18 -56 -47q0 -13 13 -29t14 -28q0 -26 -19 -44t-43 -18q-49 0 -49 62q5 68 53 114.5t140 46.5q94 -3 149 -36.5t62 -120.5
q0 -54 -41.5 -102t-77.5 -66q-16 -12 -29.5 -21.5t-22 -23t-9.5 -41.5h-68q3 50 29.5 81.5t58 64t33.5 65.5q0 143 -133 143z" />
    <glyph glyph-name="uhoanga" unicode="&#x168;" horiz-adv-x="1479" 
d="M1444 1356v-39q-64 -7 -99.5 -18.5t-56 -38t-29 -73.5t-8.5 -132v-535q0 -133 -27 -247t-144 -208t-359 -94q-176 0 -282.5 59t-154.5 145t-59.5 163.5t-11.5 155.5v639q0 78 -14 114.5t-52 50.5t-118 19v39h579v-39q-82 -6 -121 -21.5t-52 -52t-13 -110.5v-656
q0 -75 7 -135.5t41 -127.5t109 -110t199 -43q114 0 203 44.5t133 117.5q47 78 47 279v553q0 158 -39.5 207t-152.5 55v39h475zM1071 1667h53q-21 -82 -60 -138t-132 -56q-34 0 -61 8.5t-85 34.5l-41 18q-36 18 -63 18q-46 0 -66.5 -24t-31.5 -60h-54q15 74 62 129.5
t131 55.5q53 0 117 -31l43 -20q49 -27 84 -27q37 0 59.5 19t44.5 73z" />
    <glyph glyph-name="uhoanang" unicode="&#x1ee4;" horiz-adv-x="1479" 
d="M1444 1356v-39q-64 -7 -99.5 -18.5t-56 -38t-29 -73.5t-8.5 -132v-535q0 -133 -27 -247t-144 -208t-359 -94q-176 0 -282.5 59t-154.5 145t-59.5 163.5t-11.5 155.5v639q0 78 -14 114.5t-52 50.5t-118 19v39h579v-39q-82 -6 -121 -21.5t-52 -52t-13 -110.5v-656
q0 -75 7 -135.5t41 -127.5t109 -110t199 -43q114 0 203 44.5t133 117.5q47 78 47 279v553q0 158 -39.5 207t-152.5 55v39h475zM643 -223q0 19 10 41t30 36.5t50 14.5q41 0 67.5 -26.5t26.5 -65.5q0 -38 -27 -65t-67 -27q-31 0 -51 14.5t-29.5 36t-9.5 41.5z" />
    <glyph glyph-name="ythsac" 
d="M973 922v-31q-31 -5 -54.5 -21t-44.5 -71l-315 -836q-56 -146 -105.5 -233t-108.5 -131.5t-134 -44.5q-71 0 -110.5 36.5t-39.5 81.5q0 27 19.5 58.5t79.5 31.5q31 0 84 -18t61 -18q37 0 71.5 40.5t61.5 101t41.5 109.5t14.5 64q0 14 -22.5 63.5t-57.5 120.5t-47 99
l-234 503q-25 54 -104 66v29h422v-31q-55 -2 -87 -12t-32 -48q0 -26 20 -73l236 -518l160 454q11 29 22 59t18 50.5t7 30.5q0 57 -99 57v31h277zM549 1049h-66l269 268q28 28 42 34.5t35 6.5q37 0 47.5 -20t10.5 -38q0 -44 -56 -73z" />
    <glyph glyph-name="ythhuyen" unicode="&#x1ef3;" 
d="M973 922v-31q-31 -5 -54.5 -21t-44.5 -71l-315 -836q-56 -146 -105.5 -233t-108.5 -131.5t-134 -44.5q-71 0 -110.5 36.5t-39.5 81.5q0 27 19.5 58.5t79.5 31.5q31 0 84 -18t61 -18q37 0 71.5 40.5t61.5 101t41.5 109.5t14.5 64q0 14 -22.5 63.5t-57.5 120.5t-47 99
l-234 503q-25 54 -104 66v29h422v-31q-55 -2 -87 -12t-32 -48q0 -26 20 -73l236 -518l160 454q11 29 22 59t18 50.5t7 30.5q0 57 -99 57v31h277zM705 1040h-72l-281 183q-51 36 -51 75q0 15 10 35.5t45 20.5q23 0 35.5 -6.5t42.5 -34.5z" />
    <glyph glyph-name="ythhoi" unicode="&#x1ef7;" 
d="M973 922v-31q-31 -5 -54.5 -21t-44.5 -71l-315 -836q-56 -146 -105.5 -233t-108.5 -131.5t-134 -44.5q-71 0 -110.5 36.5t-39.5 81.5q0 27 19.5 58.5t79.5 31.5q31 0 84 -18t61 -18q37 0 71.5 40.5t61.5 101t41.5 109.5t14.5 64q0 14 -22.5 63.5t-57.5 120.5t-47 99
l-234 503q-25 54 -104 66v29h422v-31q-55 -2 -87 -12t-32 -48q0 -26 20 -73l236 -518l160 454q11 29 22 59t18 50.5t7 30.5q0 57 -99 57v31h277zM526 1399h-4q-55 -18 -55 -47q0 -13 13 -30.5t14 -27.5q0 -27 -19 -44t-43 -17q-20 0 -34.5 14.5t-14.5 46.5q5 69 52.5 115.5
t139.5 46.5q96 -3 150 -37t61 -121q0 -55 -38.5 -99.5t-79.5 -68.5q-10 -8 -28 -20.5t-25.5 -26t-8.5 -39.5h-67q3 49 29 81t57.5 65.5t33.5 64.5q0 144 -133 144z" />
    <glyph glyph-name="ythnga" unicode="&#x1ef9;" 
d="M973 922v-31q-31 -5 -54.5 -21t-44.5 -71l-315 -836q-56 -146 -105.5 -233t-108.5 -131.5t-134 -44.5q-71 0 -110.5 36.5t-39.5 81.5q0 27 19.5 58.5t79.5 31.5q31 0 84 -18t61 -18q37 0 71.5 40.5t61.5 101t41.5 109.5t14.5 64q0 14 -22.5 63.5t-57.5 120.5t-47 99
l-234 503q-25 54 -104 66v29h422v-31q-55 -2 -87 -12t-32 -48q0 -26 20 -73l236 -518l160 454q11 29 22 59t18 50.5t7 30.5q0 57 -99 57v31h277zM825 1233h54q-20 -79 -60 -137t-133 -58q-34 0 -58.5 8t-86.5 35l-41 19q-38 18 -64 18q-71 0 -98 -84h-53q8 45 30.5 87t64 70
t97.5 28q53 0 117 -31l43 -21q52 -26 84 -26q37 0 59.5 19t44.5 73z" />
    <glyph glyph-name="ythnang" unicode="&#x1ef5;" 
d="M973 922v-31q-31 -5 -54.5 -21t-44.5 -71l-315 -836q-56 -146 -105.5 -233t-108.5 -131.5t-134 -44.5q-71 0 -110.5 36.5t-39.5 81.5q0 27 19.5 58.5t79.5 31.5q31 0 84 -18t61 -18q37 0 71.5 40.5t61.5 101t41.5 109.5t14.5 64q0 14 -22.5 63.5t-57.5 120.5t-47 99
l-234 503q-25 54 -104 66v29h422v-31q-55 -2 -87 -12t-32 -48q0 -26 20 -73l236 -518l160 454q11 29 22 59t18 50.5t7 30.5q0 57 -99 57v31h277zM582 -354q0 32 23.5 62t66.5 30q41 0 67.5 -26.5t26.5 -65.5q0 -40 -27 -66t-67 -26q-44 0 -67 30t-23 62z" />
    <glyph glyph-name="yhoasac" horiz-adv-x="1479" 
d="M1440 1356v-39q-51 -6 -85 -20t-83.5 -64.5t-114.5 -149.5l-303 -462v-398q0 -56 8 -91t28.5 -55t60 -28t114.5 -10v-39h-627v39q100 1 143 20t53.5 59t10.5 128v356l-268 393q-101 149 -156.5 216t-88 84t-87.5 22v39h573v-39q-85 -4 -115 -14t-30 -50q0 -38 35 -88
l303 -454l293 463q29 46 29 75q0 43 -38.5 55.5t-103.5 12.5v39h449zM821 1462h-65l268 269q28 28 42 34.5t36 6.5q36 0 46.5 -20t10.5 -38q0 -27 -14.5 -42t-40.5 -32z" />
    <glyph glyph-name="yhoahuyen" unicode="&#x1ef2;" horiz-adv-x="1479" 
d="M1440 1356v-39q-51 -6 -85 -20t-83.5 -64.5t-114.5 -149.5l-303 -462v-398q0 -56 8 -91t28.5 -55t60 -28t114.5 -10v-39h-627v39q100 1 143 20t53.5 59t10.5 128v356l-268 393q-101 149 -156.5 216t-88 84t-87.5 22v39h573v-39q-85 -4 -115 -14t-30 -50q0 -38 35 -88
l303 -454l293 463q29 46 29 75q0 43 -38.5 55.5t-103.5 12.5v39h449zM977 1454h-72l-280 182q-52 37 -52 76q0 15 10 35t46 20q22 0 35 -6.5t43 -34.5z" />
    <glyph glyph-name="yhoahoi" unicode="&#x1ef6;" horiz-adv-x="1479" 
d="M1440 1356v-39q-51 -6 -85 -20t-83.5 -64.5t-114.5 -149.5l-303 -462v-398q0 -56 8 -91t28.5 -55t60 -28t114.5 -10v-39h-627v39q100 1 143 20t53.5 59t10.5 128v356l-268 393q-101 149 -156.5 216t-88 84t-87.5 22v39h573v-39q-85 -4 -115 -14t-30 -50q0 -38 35 -88
l303 -454l293 463q29 46 29 75q0 43 -38.5 55.5t-103.5 12.5v39h449zM748 1812h-5q-55 -18 -55 -47q0 -12 13 -29.5t14 -27.5q0 -27 -19 -44t-43 -17q-20 0 -34.5 14.5t-14.5 46.5q5 70 53 116t140 46q95 -3 149.5 -37.5t61.5 -120.5q0 -55 -40.5 -101t-78.5 -67
q-10 -8 -28 -20.5t-25.5 -26t-8.5 -39.5h-67q3 49 29.5 81.5t58 65t33.5 64.5q0 143 -133 143z" />
    <glyph glyph-name="yhoanga" unicode="&#x1ef8;" horiz-adv-x="1479" 
d="M1440 1356v-39q-51 -6 -85 -20t-83.5 -64.5t-114.5 -149.5l-303 -462v-398q0 -56 8 -91t28.5 -55t60 -28t114.5 -10v-39h-627v39q100 1 143 20t53.5 59t10.5 128v356l-268 393q-101 149 -156.5 216t-88 84t-87.5 22v39h573v-39q-85 -4 -115 -14t-30 -50q0 -38 35 -88
l303 -454l293 463q29 46 29 75q0 43 -38.5 55.5t-103.5 12.5v39h449zM1077 1657h53q-20 -82 -59.5 -138.5t-132.5 -56.5q-34 0 -58.5 8t-86.5 35l-41 19q-38 18 -64 18q-46 0 -66.5 -24t-31.5 -60h-53q8 45 30.5 87t63 69.5t98.5 27.5q55 0 117 -30l43 -21q52 -26 84 -26
q37 0 59.5 19t44.5 73z" />
    <glyph glyph-name="yhoanang" unicode="&#x1ef4;" horiz-adv-x="1479" 
d="M1440 1356v-39q-51 -6 -85 -20t-83.5 -64.5t-114.5 -149.5l-303 -462v-398q0 -56 8 -91t28.5 -55t60 -28t114.5 -10v-39h-627v39q100 1 143 20t53.5 59t10.5 128v356l-268 393q-101 149 -156.5 216t-88 84t-87.5 22v39h573v-39q-85 -4 -115 -14t-30 -50q0 -38 35 -88
l303 -454l293 463q29 46 29 75q0 43 -38.5 55.5t-103.5 12.5v39h449zM659 -236q0 31 23.5 62t67.5 31q41 0 67.5 -27.5t26.5 -65.5t-27 -65t-67 -27q-44 0 -67.5 30t-23.5 62z" />
    <glyph glyph-name="octhsac" unicode="&#x1edb;" horiz-adv-x="1065" 
d="M483 942q115 0 203.5 -40t141 -98.5t71.5 -119.5q17 0 46.5 13.5t51 32.5t21.5 30q-70 0 -70 96q0 39 22 63.5t60 24.5q37 0 64 -27t28 -65q0 -65 -29.5 -117t-75 -82.5t-91.5 -31.5q18 -42 18 -154q0 -108 -51.5 -221.5t-154 -189.5t-249.5 -76q-98 0 -179.5 36.5
t-143 104.5t-93.5 157t-32 189q0 125 54 235t155.5 175t232.5 65zM518 37q58 0 113.5 34t92 117t36.5 220q0 126 -34.5 236.5t-101.5 175.5t-157 65q-65 0 -120.5 -36t-88.5 -108t-33 -176q0 -101 25 -222t91 -213.5t177 -92.5zM397 1036h-65l268 269q28 28 42 34.5t36 6.5
q36 0 46.5 -20t10.5 -38q0 -27 -14.5 -42t-40.5 -32z" />
    <glyph glyph-name="octhhuyen" unicode="&#x1edd;" horiz-adv-x="1065" 
d="M483 942q115 0 203.5 -40t141 -98.5t71.5 -119.5q17 0 46.5 13.5t51 32.5t21.5 30q-70 0 -70 96q0 39 22 63.5t60 24.5q37 0 64 -27t28 -65q0 -65 -29.5 -117t-75 -82.5t-91.5 -31.5q18 -42 18 -154q0 -108 -51.5 -221.5t-154 -189.5t-249.5 -76q-98 0 -179.5 36.5
t-143 104.5t-93.5 157t-32 189q0 125 54 235t155.5 175t232.5 65zM518 37q58 0 113.5 34t92 117t36.5 220q0 126 -34.5 236.5t-101.5 175.5t-157 65q-65 0 -120.5 -36t-88.5 -108t-33 -176q0 -101 25 -222t91 -213.5t177 -92.5zM735 1036h-71l-281 183q-51 34 -51 75
q0 15 10 35.5t45 20.5q23 0 35.5 -6.5t42.5 -34.5z" />
    <glyph glyph-name="octhhoi" unicode="&#x1edf;" horiz-adv-x="1065" 
d="M483 942q115 0 203.5 -40t141 -98.5t71.5 -119.5q17 0 46.5 13.5t51 32.5t21.5 30q-70 0 -70 96q0 39 22 63.5t60 24.5q37 0 64 -27t28 -65q0 -65 -29.5 -117t-75 -82.5t-91.5 -31.5q18 -42 18 -154q0 -108 -51.5 -221.5t-154 -189.5t-249.5 -76q-98 0 -179.5 36.5
t-143 104.5t-93.5 157t-32 189q0 125 54 235t155.5 175t232.5 65zM518 37q58 0 113.5 34t92 117t36.5 220q0 126 -34.5 236.5t-101.5 175.5t-157 65q-65 0 -120.5 -36t-88.5 -108t-33 -176q0 -101 25 -222t91 -213.5t177 -92.5zM424 1397h-4q-55 -17 -55 -47
q0 -12 12.5 -28.5t13.5 -29.5q0 -27 -19 -44t-42 -17q-49 0 -49 61q5 69 52.5 115.5t139.5 46.5q96 -3 150 -37t61 -121q0 -55 -40.5 -101t-78.5 -67q-6 -5 -25.5 -19t-27 -27.5t-8.5 -39.5h-68q3 49 29 81t58 65t34 65q0 144 -133 144z" />
    <glyph glyph-name="octhnga" unicode="&#x1ee1;" horiz-adv-x="1065" 
d="M483 942q115 0 203.5 -40t141 -98.5t71.5 -119.5q17 0 46.5 13.5t51 32.5t21.5 30q-70 0 -70 96q0 39 22 63.5t60 24.5q37 0 64 -27t28 -65q0 -65 -29.5 -117t-75 -82.5t-91.5 -31.5q18 -42 18 -154q0 -108 -51.5 -221.5t-154 -189.5t-249.5 -76q-98 0 -179.5 36.5
t-143 104.5t-93.5 157t-32 189q0 125 54 235t155.5 175t232.5 65zM518 37q58 0 113.5 34t92 117t36.5 220q0 126 -34.5 236.5t-101.5 175.5t-157 65q-65 0 -120.5 -36t-88.5 -108t-33 -176q0 -101 25 -222t91 -213.5t177 -92.5zM737 1243h54q-20 -79 -60 -136.5t-133 -57.5
q-34 0 -58.5 8t-86.5 35l-41 18q-38 18 -64 18q-71 0 -98 -84h-53q8 45 30.5 87t64 70t97.5 28t117 -31l43 -20q49 -27 84 -27q37 0 59.5 19t44.5 73z" />
    <glyph glyph-name="octhnang" unicode="&#x1ee3;" horiz-adv-x="1065" 
d="M483 942q115 0 203.5 -40t141 -98.5t71.5 -119.5q17 0 46.5 13.5t51 32.5t21.5 30q-70 0 -70 96q0 39 22 63.5t60 24.5q37 0 64 -27t28 -65q0 -65 -29.5 -117t-75 -82.5t-91.5 -31.5q18 -42 18 -154q0 -108 -51.5 -221.5t-154 -189.5t-249.5 -76q-98 0 -179.5 36.5
t-143 104.5t-93.5 157t-32 189q0 125 54 235t155.5 175t232.5 65zM518 37q58 0 113.5 34t92 117t36.5 220q0 126 -34.5 236.5t-101.5 175.5t-157 65q-65 0 -120.5 -36t-88.5 -108t-33 -176q0 -101 25 -222t91 -213.5t177 -92.5zM399 -215q0 19 10 41t30 36.5t50 14.5
q43 0 69 -26t26 -66q0 -39 -26.5 -65.5t-68.5 -26.5q-31 0 -51 14.5t-29.5 36t-9.5 41.5z" />
    <glyph glyph-name="ochoasac" unicode="&#x1eda;" horiz-adv-x="1495" 
d="M731 -29q-184 0 -338.5 86t-243 246.5t-88.5 372.5q0 170 55 303.5t150.5 223.5t216 135.5t248.5 45.5q115 0 206 -23.5t159 -63t115 -86.5t77 -97q34 0 78.5 29t44.5 49q-70 0 -70 96q0 39 22 63.5t60 24.5q39 0 65 -26.5t28 -65.5q0 -62 -29 -115t-75 -83.5t-93 -32.5
q43 -75 62.5 -162.5t19.5 -214.5q0 -212 -88.5 -372.5t-243 -246.5t-338.5 -86zM731 45q87 0 165.5 36.5t139.5 113t96 199t35 284.5q0 323 -128 478t-308 155q-179 0 -307.5 -155t-128.5 -478q0 -162 34.5 -283t97 -199.5t140 -114.5t164.5 -36zM659 1489h-65l268 268
q28 28 42 34.5t36 6.5q36 0 46.5 -20t10.5 -37q0 -45 -55 -74z" />
    <glyph glyph-name="ochoahuyen" unicode="&#x1edc;" horiz-adv-x="1495" 
d="M731 -29q-184 0 -338.5 86t-243 246.5t-88.5 372.5q0 170 55 303.5t150.5 223.5t216 135.5t248.5 45.5q115 0 206 -23.5t159 -63t115 -86.5t77 -97q34 0 78.5 29t44.5 49q-70 0 -70 96q0 39 22 63.5t60 24.5q39 0 65 -26.5t28 -65.5q0 -62 -29 -115t-75 -83.5t-93 -32.5
q43 -75 62.5 -162.5t19.5 -214.5q0 -212 -88.5 -372.5t-243 -246.5t-338.5 -86zM731 45q87 0 165.5 36.5t139.5 113t96 199t35 284.5q0 323 -128 478t-308 155q-179 0 -307.5 -155t-128.5 -478q0 -162 34.5 -283t97 -199.5t140 -114.5t164.5 -36zM915 1479h-71l-281 182
q-51 36 -51 76q0 15 10 35t45 20q23 0 35.5 -6.5t42.5 -34.5z" />
    <glyph glyph-name="ochoahoi" unicode="&#x1ede;" horiz-adv-x="1495" 
d="M731 -29q-184 0 -338.5 86t-243 246.5t-88.5 372.5q0 170 55 303.5t150.5 223.5t216 135.5t248.5 45.5q115 0 206 -23.5t159 -63t115 -86.5t77 -97q34 0 78.5 29t44.5 49q-70 0 -70 96q0 39 22 63.5t60 24.5q39 0 65 -26.5t28 -65.5q0 -62 -29 -115t-75 -83.5t-93 -32.5
q43 -75 62.5 -162.5t19.5 -214.5q0 -212 -88.5 -372.5t-243 -246.5t-338.5 -86zM731 45q87 0 165.5 36.5t139.5 113t96 199t35 284.5q0 323 -128 478t-308 155q-179 0 -307.5 -155t-128.5 -478q0 -162 34.5 -283t97 -199.5t140 -114.5t164.5 -36zM666 1841h-4
q-56 -18 -56 -47q0 -11 13 -28t14 -29q0 -26 -19 -44t-43 -18q-20 0 -34.5 15.5t-14.5 46.5q5 68 53 114.5t140 46.5q94 -3 149 -37t62 -120q0 -54 -41.5 -102t-77.5 -66q-16 -12 -29.5 -21.5t-22.5 -24t-10 -40.5h-67q3 49 29.5 81.5t58 64.5t33.5 65q0 143 -133 143z" />
    <glyph glyph-name="ochoanga" unicode="&#x1ee0;" horiz-adv-x="1495" 
d="M731 -29q-184 0 -338.5 86t-243 246.5t-88.5 372.5q0 170 55 303.5t150.5 223.5t216 135.5t248.5 45.5q115 0 206 -23.5t159 -63t115 -86.5t77 -97q34 0 78.5 29t44.5 49q-70 0 -70 96q0 39 22 63.5t60 24.5q39 0 65 -26.5t28 -65.5q0 -62 -29 -115t-75 -83.5t-93 -32.5
q43 -75 62.5 -162.5t19.5 -214.5q0 -212 -88.5 -372.5t-243 -246.5t-338.5 -86zM731 45q87 0 165.5 36.5t139.5 113t96 199t35 284.5q0 323 -128 478t-308 155q-179 0 -307.5 -155t-128.5 -478q0 -162 34.5 -283t97 -199.5t140 -114.5t164.5 -36zM967 1694h53
q-20 -82 -60 -138.5t-133 -56.5q-34 0 -58.5 8t-86.5 35l-41 19q-36 18 -63 18q-72 0 -99 -84h-53q13 71 61 127.5t131 56.5q55 0 117 -30l43 -21q55 -26 84 -26q37 0 60 19t45 73z" />
    <glyph glyph-name="ochoanang" unicode="&#x1ee2;" horiz-adv-x="1495" 
d="M731 -29q-184 0 -338.5 86t-243 246.5t-88.5 372.5q0 170 55 303.5t150.5 223.5t216 135.5t248.5 45.5q115 0 206 -23.5t159 -63t115 -86.5t77 -97q34 0 78.5 29t44.5 49q-70 0 -70 96q0 39 22 63.5t60 24.5q39 0 65 -26.5t28 -65.5q0 -62 -29 -115t-75 -83.5t-93 -32.5
q43 -75 62.5 -162.5t19.5 -214.5q0 -212 -88.5 -372.5t-243 -246.5t-338.5 -86zM731 45q87 0 165.5 36.5t139.5 113t96 199t35 284.5q0 323 -128 478t-308 155q-179 0 -307.5 -155t-128.5 -478q0 -162 34.5 -283t97 -199.5t140 -114.5t164.5 -36zM639 -223q0 19 10 41
t30 36.5t50 14.5q41 0 67.5 -26.5t26.5 -65.5q0 -38 -27 -65t-67 -27q-31 0 -51 14.5t-29.5 36t-9.5 41.5z" />
    <glyph glyph-name="ucthsac" unicode="&#x1ee9;" 
d="M981 102v-28q-88 -23 -285 -92l-4 4v170l-88 -88q-53 -53 -111 -70.5t-104 -17.5q-53 0 -108 23.5t-95.5 83.5t-40.5 159v516q0 82 -32 104.5t-95 26.5v29h299v-668q0 -44 34 -100t120 -56q88 0 178 74q33 28 33 104v482q0 70 -26.5 98t-125.5 31v35h324v-263
q43 0 92 29.5t49 48.5q-69 0 -69 97q0 39 22 63.5t60 24.5q37 0 64 -27.5t28 -65.5q-1 -98 -74 -162.5t-172 -64.5v-383q0 -46 7 -68.5t34 -35.5t86 -13zM467 1038h-66l269 269q28 28 42 34.5t36 6.5q36 0 46.5 -20t10.5 -38q0 -42 -55 -73z" />
    <glyph glyph-name="ucthhuyen" unicode="&#x1eeb;" 
d="M981 102v-28q-88 -23 -285 -92l-4 4v170l-88 -88q-53 -53 -111 -70.5t-104 -17.5q-53 0 -108 23.5t-95.5 83.5t-40.5 159v516q0 82 -32 104.5t-95 26.5v29h299v-668q0 -44 34 -100t120 -56q88 0 178 74q33 28 33 104v482q0 70 -26.5 98t-125.5 31v35h324v-263
q43 0 92 29.5t49 48.5q-69 0 -69 97q0 39 22 63.5t60 24.5q37 0 64 -27.5t28 -65.5q-1 -98 -74 -162.5t-172 -64.5v-383q0 -46 7 -68.5t34 -35.5t86 -13zM680 1040h-72l-280 183q-52 35 -52 75q0 15 10 35.5t46 20.5q22 0 35 -6.5t43 -34.5z" />
    <glyph glyph-name="ucthhoi" unicode="&#x1eed;" 
d="M981 102v-28q-88 -23 -285 -92l-4 4v170l-88 -88q-53 -53 -111 -70.5t-104 -17.5q-53 0 -108 23.5t-95.5 83.5t-40.5 159v516q0 82 -32 104.5t-95 26.5v29h299v-668q0 -44 34 -100t120 -56q88 0 178 74q33 28 33 104v482q0 70 -26.5 98t-125.5 31v35h324v-263
q43 0 92 29.5t49 48.5q-69 0 -69 97q0 39 22 63.5t60 24.5q37 0 64 -27.5t28 -65.5q-1 -98 -74 -162.5t-172 -64.5v-383q0 -46 7 -68.5t34 -35.5t86 -13zM434 1378h-4q-55 -18 -55 -47q0 -10 12.5 -26.5t13.5 -30.5q0 -28 -18 -45t-43 -17q-49 0 -49 62q5 69 52.5 115.5
t139.5 46.5q96 -3 150 -37t61 -121q0 -54 -41.5 -102t-77.5 -66q-17 -13 -30.5 -22.5t-21.5 -24t-9 -39.5h-68q2 48 28.5 80t58.5 65t34 66q0 143 -133 143z" />
    <glyph glyph-name="ucthnga" unicode="&#x1eef;" 
d="M981 102v-28q-88 -23 -285 -92l-4 4v170l-88 -88q-53 -53 -111 -70.5t-104 -17.5q-53 0 -108 23.5t-95.5 83.5t-40.5 159v516q0 82 -32 104.5t-95 26.5v29h299v-668q0 -44 34 -100t120 -56q88 0 178 74q33 28 33 104v482q0 70 -26.5 98t-125.5 31v35h324v-263
q43 0 92 29.5t49 48.5q-69 0 -69 97q0 39 22 63.5t60 24.5q37 0 64 -27.5t28 -65.5q-1 -98 -74 -162.5t-172 -64.5v-383q0 -46 7 -68.5t34 -35.5t86 -13zM743 1223h54q-20 -79 -60 -137t-133 -58q-34 0 -58.5 8t-86.5 35l-41 19q-38 18 -64 18q-71 0 -98 -84h-53
q8 45 30.5 87t63 69.5t98.5 27.5q55 0 117 -30l43 -21q54 -27 84 -27q37 0 59.5 19.5t44.5 73.5z" />
    <glyph glyph-name="ucthnang" unicode="&#x1ef1;" 
d="M981 102v-28q-88 -23 -285 -92l-4 4v170l-88 -88q-53 -53 -111 -70.5t-104 -17.5q-53 0 -108 23.5t-95.5 83.5t-40.5 159v516q0 82 -32 104.5t-95 26.5v29h299v-668q0 -44 34 -100t120 -56q88 0 178 74q33 28 33 104v482q0 70 -26.5 98t-125.5 31v35h324v-263
q43 0 92 29.5t49 48.5q-69 0 -69 97q0 39 22 63.5t60 24.5q37 0 64 -27.5t28 -65.5q-1 -98 -74 -162.5t-172 -64.5v-383q0 -46 7 -68.5t34 -35.5t86 -13zM408 -215q0 32 23.5 62t66.5 30q41 0 67.5 -26.5t26.5 -65.5q0 -38 -27 -65t-67 -27q-44 0 -67 30t-23 62z" />
    <glyph glyph-name="uchoasac" unicode="&#x1ee8;" horiz-adv-x="1495" 
d="M1231 1356h20v-269q44 0 93 29.5t49 48.5q-70 0 -70 97q0 39 22 63.5t60 24.5q37 0 64 -27.5t28 -65.5q-1 -98 -74 -162.5t-172 -64.5v-510q0 -133 -27 -247t-144 -208t-359 -94q-176 0 -282.5 59t-154.5 145t-59.5 163.5t-11.5 155.5v639q0 78 -14 114.5t-52 50.5
t-118 19v39h579v-39q-82 -6 -121 -21.5t-52 -52t-13 -110.5v-656q0 -75 7 -135.5t41 -127.5t109 -110t199 -43q114 0 203 44.5t133 117.5q47 78 47 279v553q0 158 -39.5 207t-152.5 55v39h262zM760 1468h-66l269 269q28 28 42 34.5t35 6.5q37 0 47.5 -20t10.5 -38
q0 -44 -56 -73z" />
    <glyph glyph-name="uchoahuyen" unicode="&#x1eea;" horiz-adv-x="1495" 
d="M1231 1356h20v-269q44 0 93 29.5t49 48.5q-70 0 -70 97q0 39 22 63.5t60 24.5q37 0 64 -27.5t28 -65.5q-1 -98 -74 -162.5t-172 -64.5v-510q0 -133 -27 -247t-144 -208t-359 -94q-176 0 -282.5 59t-154.5 145t-59.5 163.5t-11.5 155.5v639q0 78 -14 114.5t-52 50.5
t-118 19v39h579v-39q-82 -6 -121 -21.5t-52 -52t-13 -110.5v-656q0 -75 7 -135.5t41 -127.5t109 -110t199 -43q114 0 203 44.5t133 117.5q47 78 47 279v553q0 158 -39.5 207t-152.5 55v39h262zM903 1468h-72l-280 183q-51 34 -51 75q0 16 10 36t45 20q23 0 35.5 -6.5
t42.5 -34.5z" />
    <glyph glyph-name="uchoahoi" unicode="&#x1eec;" horiz-adv-x="1495" 
d="M1231 1356h20v-269q44 0 93 29.5t49 48.5q-70 0 -70 97q0 39 22 63.5t60 24.5q37 0 64 -27.5t28 -65.5q-1 -98 -74 -162.5t-172 -64.5v-510q0 -133 -27 -247t-144 -208t-359 -94q-176 0 -282.5 59t-154.5 145t-59.5 163.5t-11.5 155.5v639q0 78 -14 114.5t-52 50.5
t-118 19v39h579v-39q-82 -6 -121 -21.5t-52 -52t-13 -110.5v-656q0 -75 7 -135.5t41 -127.5t109 -110t199 -43q114 0 203 44.5t133 117.5q47 78 47 279v553q0 158 -39.5 207t-152.5 55v39h262zM733 1821h-4q-55 -18 -55 -47q0 -12 12.5 -28.5t13.5 -29.5q0 -28 -18 -44.5
t-43 -16.5q-49 0 -49 61q5 69 52.5 115.5t139.5 46.5q96 -3 150 -37t61 -121q0 -55 -40.5 -101t-78.5 -67q-6 -5 -25.5 -19t-27 -27.5t-8.5 -39.5h-68q2 48 28.5 80t58.5 65t34 66q0 144 -133 144z" />
    <glyph glyph-name="uchoanga" unicode="&#x1eee;" horiz-adv-x="1495" 
d="M1231 1356h20v-269q44 0 93 29.5t49 48.5q-70 0 -70 97q0 39 22 63.5t60 24.5q37 0 64 -27.5t28 -65.5q-1 -98 -74 -162.5t-172 -64.5v-510q0 -133 -27 -247t-144 -208t-359 -94q-176 0 -282.5 59t-154.5 145t-59.5 163.5t-11.5 155.5v639q0 78 -14 114.5t-52 50.5
t-118 19v39h579v-39q-82 -6 -121 -21.5t-52 -52t-13 -110.5v-656q0 -75 7 -135.5t41 -127.5t109 -110t199 -43q114 0 203 44.5t133 117.5q47 78 47 279v553q0 158 -39.5 207t-152.5 55v39h262zM1032 1665h53q-21 -82 -60 -138.5t-132 -56.5q-34 0 -58.5 8t-86.5 35l-41 19
q-38 18 -64 18q-46 0 -66.5 -24t-31.5 -60h-53q8 45 30.5 87t64 70t97.5 28q53 0 117 -31l43 -21q52 -26 84 -26q37 0 59.5 19t44.5 73z" />
    <glyph glyph-name="uchoanang" unicode="&#x1ef0;" horiz-adv-x="1495" 
d="M1231 1356h20v-269q44 0 93 29.5t49 48.5q-70 0 -70 97q0 39 22 63.5t60 24.5q37 0 64 -27.5t28 -65.5q-1 -98 -74 -162.5t-172 -64.5v-510q0 -133 -27 -247t-144 -208t-359 -94q-176 0 -282.5 59t-154.5 145t-59.5 163.5t-11.5 155.5v639q0 78 -14 114.5t-52 50.5
t-118 19v39h579v-39q-82 -6 -121 -21.5t-52 -52t-13 -110.5v-656q0 -75 7 -135.5t41 -127.5t109 -110t199 -43q114 0 203 44.5t133 117.5q47 78 47 279v553q0 158 -39.5 207t-152.5 55v39h262zM655 -215q0 19 10 41t30 36.5t50 14.5q43 0 69 -26t26 -66q0 -39 -26.5 -65.5
t-68.5 -26.5q-31 0 -51 14.5t-29.5 36t-9.5 41.5z" />
    <glyph glyph-name="aathsac" unicode="&#x1eaf;" horiz-adv-x="909" 
d="M588 252v297q-202 -67 -267 -140t-65 -147v-4q0 -70 38.5 -115t96.5 -45q29 0 68 13t59 24q31 15 46.5 30.5t19.5 35t4 51.5zM905 135v-53q-56 -65 -99.5 -83.5t-82.5 -18.5q-123 0 -133 149q-71 -64 -145 -106.5t-152 -42.5q-89 0 -153 57.5t-64 155.5q0 75 32 130
t93 96.5t149 81t238 97.5v125q0 98 -47.5 134t-110.5 36q-55 0 -100 -27.5t-45 -72.5q0 -10 5 -39t5 -41q0 -32 -26 -60t-66 -28q-44 0 -66 29.5t-22 60.5q0 78 86.5 152.5t247.5 74.5q139 0 206.5 -51.5t83 -118.5t15.5 -158v-399q0 -59 10 -89t49 -30q44 0 92 39z
M659 1311h56q-30 -277 -262 -277q-69 0 -126.5 30t-92.5 93t-35 152h53q14 -80 65 -124t138 -44q64 0 103.5 22.5t59 56t41.5 91.5zM446 1346h-65l268 268q28 28 42 34.5t36 6.5q36 0 46.5 -20t10.5 -38q0 -44 -55 -73z" />
    <glyph glyph-name="aathhuyen" unicode="&#x1eb1;" horiz-adv-x="909" 
d="M588 252v297q-202 -67 -267 -140t-65 -147v-4q0 -70 38.5 -115t96.5 -45q29 0 68 13t59 24q31 15 46.5 30.5t19.5 35t4 51.5zM905 135v-53q-56 -65 -99.5 -83.5t-82.5 -18.5q-123 0 -133 149q-71 -64 -145 -106.5t-152 -42.5q-89 0 -153 57.5t-64 155.5q0 75 32 130
t93 96.5t149 81t238 97.5v125q0 98 -47.5 134t-110.5 36q-55 0 -100 -27.5t-45 -72.5q0 -10 5 -39t5 -41q0 -32 -26 -60t-66 -28q-44 0 -66 29.5t-22 60.5q0 78 86.5 152.5t247.5 74.5q139 0 206.5 -51.5t83 -118.5t15.5 -158v-399q0 -59 10 -89t49 -30q44 0 92 39z
M659 1311h56q-30 -277 -262 -277q-69 0 -126.5 30t-92.5 93t-35 152h53q14 -80 65 -124t138 -44q64 0 103.5 22.5t59 56t41.5 91.5zM561 1358h-72l-280 182q-51 34 -51 76q0 15 10 35t45 20q23 0 35.5 -6.5t42.5 -34.5z" />
    <glyph glyph-name="aathhoi" unicode="&#x1eb3;" horiz-adv-x="909" 
d="M588 252v297q-202 -67 -267 -140t-65 -147v-4q0 -70 38.5 -115t96.5 -45q29 0 68 13t59 24q31 15 46.5 30.5t19.5 35t4 51.5zM905 135v-53q-56 -65 -99.5 -83.5t-82.5 -18.5q-123 0 -133 149q-71 -64 -145 -106.5t-152 -42.5q-89 0 -153 57.5t-64 155.5q0 75 32 130
t93 96.5t149 81t238 97.5v125q0 98 -47.5 134t-110.5 36q-55 0 -100 -27.5t-45 -72.5q0 -10 5 -39t5 -41q0 -32 -26 -60t-66 -28q-44 0 -66 29.5t-22 60.5q0 78 86.5 152.5t247.5 74.5q139 0 206.5 -51.5t83 -118.5t15.5 -158v-399q0 -59 10 -89t49 -30q44 0 92 39z
M659 1311h56q-30 -277 -262 -277q-69 0 -126.5 30t-92.5 93t-35 152h53q14 -80 65 -124t138 -44q64 0 103.5 22.5t59 56t41.5 91.5zM393 1706h-4q-55 -18 -55 -47q0 -12 12.5 -27.5t13.5 -29.5q0 -28 -18 -45t-43 -17q-49 0 -49 62q5 68 52.5 114.5t139.5 46.5
q95 -3 149.5 -36.5t61.5 -120.5q0 -54 -39.5 -100.5t-78.5 -67.5q-16 -12 -30.5 -22t-22.5 -24.5t-9 -39.5h-67q3 50 29 81.5t57.5 64t33.5 65.5q0 143 -133 143z" />
    <glyph glyph-name="aathnga" unicode="&#x1eb5;" horiz-adv-x="909" 
d="M588 252v297q-202 -67 -267 -140t-65 -147v-4q0 -70 38.5 -115t96.5 -45q29 0 68 13t59 24q31 15 46.5 30.5t19.5 35t4 51.5zM905 135v-53q-56 -65 -99.5 -83.5t-82.5 -18.5q-123 0 -133 149q-71 -64 -145 -106.5t-152 -42.5q-89 0 -153 57.5t-64 155.5q0 75 32 130
t93 96.5t149 81t238 97.5v125q0 98 -47.5 134t-110.5 36q-55 0 -100 -27.5t-45 -72.5q0 -10 5 -39t5 -41q0 -32 -26 -60t-66 -28q-44 0 -66 29.5t-22 60.5q0 78 86.5 152.5t247.5 74.5q139 0 206.5 -51.5t83 -118.5t15.5 -158v-399q0 -59 10 -89t49 -30q44 0 92 39z
M659 1311h56q-30 -277 -262 -277q-69 0 -126.5 30t-92.5 93t-35 152h53q14 -80 65 -124t138 -44q64 0 103.5 22.5t59 56t41.5 91.5zM733 1612h53q-20 -82 -59.5 -138.5t-132.5 -56.5q-34 0 -58.5 8t-86.5 35l-41 19q-38 18 -64 18q-46 0 -66.5 -24t-31.5 -60h-53
q8 45 30.5 87t63 69.5t98.5 27.5q55 0 117 -30l43 -21q52 -26 84 -26q37 0 59.5 19t44.5 73z" />
    <glyph glyph-name="aathnang" unicode="&#x1eb7;" horiz-adv-x="909" 
d="M588 252v297q-202 -67 -267 -140t-65 -147v-4q0 -70 38.5 -115t96.5 -45q29 0 68 13t59 24q31 15 46.5 30.5t19.5 35t4 51.5zM905 135v-53q-56 -65 -99.5 -83.5t-82.5 -18.5q-123 0 -133 149q-71 -64 -145 -106.5t-152 -42.5q-89 0 -153 57.5t-64 155.5q0 75 32 130
t93 96.5t149 81t238 97.5v125q0 98 -47.5 134t-110.5 36q-55 0 -100 -27.5t-45 -72.5q0 -10 5 -39t5 -41q0 -32 -26 -60t-66 -28q-44 0 -66 29.5t-22 60.5q0 78 86.5 152.5t247.5 74.5q139 0 206.5 -51.5t83 -118.5t15.5 -158v-399q0 -59 10 -89t49 -30q44 0 92 39z
M659 1311h56q-30 -277 -262 -277q-69 0 -126.5 30t-92.5 93t-35 152h53q14 -80 65 -124t138 -44q64 0 103.5 22.5t59 56t41.5 91.5zM367 -215q0 32 23.5 62t66.5 30q41 0 67.5 -26.5t26.5 -65.5q0 -38 -27 -65t-67 -27q-44 0 -67 30t-23 62z" />
    <glyph glyph-name="aahoasac" unicode="&#x1eae;" horiz-adv-x="1479" 
d="M1446 39v-39h-522v39q70 0 106.5 14t36.5 64q0 35 -39 129l-84 196h-536l-95 -239q-16 -43 -16 -78q0 -55 41.5 -70.5t97.5 -15.5v-39h-405v39q65 4 104 45q45 49 150 291l426 1005h41l510 -1163q36 -81 58.5 -114.5t50.5 -47t75 -16.5zM442 526h473l-237 564zM936 1735
h55q-6 -54 -23.5 -113.5t-74.5 -111.5t-164 -52q-69 0 -126.5 30t-92.5 93t-35 152h53q30 -168 203 -168q92 0 132 42.5t73 127.5zM723 1769h-66l269 269q28 28 42 34.5t36 6.5q36 0 46.5 -20t10.5 -38q0 -42 -55 -73z" />
    <glyph glyph-name="aahoahuyen" unicode="&#x1eb0;" horiz-adv-x="1479" 
d="M1446 39v-39h-522v39q70 0 106.5 14t36.5 64q0 35 -39 129l-84 196h-536l-95 -239q-16 -43 -16 -78q0 -55 41.5 -70.5t97.5 -15.5v-39h-405v39q65 4 104 45q45 49 150 291l426 1005h41l510 -1163q36 -81 58.5 -114.5t50.5 -47t75 -16.5zM442 526h473l-237 564zM936 1735
h55q-6 -54 -23.5 -113.5t-74.5 -111.5t-164 -52q-69 0 -126.5 30t-92.5 93t-35 152h53q30 -168 203 -168q92 0 132 42.5t73 127.5zM838 1782h-72l-281 182q-51 36 -51 76q0 15 10 35t45 20q23 0 35.5 -6.5t42.5 -34.5z" />
    <glyph glyph-name="aahoahoi" unicode="&#x1eb2;" horiz-adv-x="1479" 
d="M1446 39v-39h-522v39q70 0 106.5 14t36.5 64q0 35 -39 129l-84 196h-536l-95 -239q-16 -43 -16 -78q0 -55 41.5 -70.5t97.5 -15.5v-39h-405v39q65 4 104 45q45 49 150 291l426 1005h41l510 -1163q36 -81 58.5 -114.5t50.5 -47t75 -16.5zM442 526h473l-237 564zM936 1735
h55q-6 -54 -23.5 -113.5t-74.5 -111.5t-164 -52q-69 0 -126.5 30t-92.5 93t-35 152h53q30 -168 203 -168q92 0 132 42.5t73 127.5zM670 2130h-4q-56 -18 -56 -47q0 -13 13 -30.5t14 -27.5q0 -25 -19 -43t-43 -18q-20 0 -34.5 14.5t-14.5 46.5q5 70 53 116t140 46
q95 -3 149.5 -37t61.5 -120q0 -54 -41.5 -102t-77.5 -66q-16 -12 -29.5 -21.5t-22 -23t-9.5 -41.5h-68q3 50 29.5 81.5t58 64t33.5 65.5q0 143 -133 143z" />
    <glyph glyph-name="aahoanga" unicode="&#x1eb4;" horiz-adv-x="1479" 
d="M1446 39v-39h-522v39q70 0 106.5 14t36.5 64q0 35 -39 129l-84 196h-536l-95 -239q-16 -43 -16 -78q0 -55 41.5 -70.5t97.5 -15.5v-39h-405v39q65 4 104 45q45 49 150 291l426 1005h41l510 -1163q36 -81 58.5 -114.5t50.5 -47t75 -16.5zM442 526h473l-237 564zM936 1735
h55q-6 -54 -23.5 -113.5t-74.5 -111.5t-164 -52q-69 0 -126.5 30t-92.5 93t-35 152h53q30 -168 203 -168q92 0 132 42.5t73 127.5zM1010 2036h53q-20 -82 -60 -138.5t-133 -56.5q-34 0 -58.5 8t-86.5 35l-41 19q-36 18 -63 18q-72 0 -99 -84h-53q13 71 61 127.5t132 56.5
q54 0 116 -30l43 -21q55 -26 84 -26q37 0 60 19t45 73z" />
    <glyph glyph-name="aahoanang" unicode="&#x1eb6;" horiz-adv-x="1479" 
d="M1446 39v-39h-522v39q70 0 106.5 14t36.5 64q0 35 -39 129l-84 196h-536l-95 -239q-16 -43 -16 -78q0 -55 41.5 -70.5t97.5 -15.5v-39h-405v39q65 4 104 45q45 49 150 291l426 1005h41l510 -1163q36 -81 58.5 -114.5t50.5 -47t75 -16.5zM442 526h473l-237 564zM936 1735
h55q-6 -54 -23.5 -113.5t-74.5 -111.5t-164 -52q-69 0 -126.5 30t-92.5 93t-35 152h53q30 -168 203 -168q92 0 132 42.5t73 127.5zM592 -231q0 30 23.5 61t66.5 31q41 0 67.5 -26.5t26.5 -65.5t-27 -66t-67 -27q-42 0 -66 30t-24 63z" />
    <glyph glyph-name="abthsac" unicode="&#x1ea5;" horiz-adv-x="909" 
d="M588 252v297q-202 -67 -267 -140t-65 -147v-4q0 -70 38.5 -115t96.5 -45q29 0 68 13t59 24q31 15 46.5 30.5t19.5 35t4 51.5zM905 135v-53q-56 -65 -99.5 -83.5t-82.5 -18.5q-123 0 -133 149q-71 -64 -145 -106.5t-152 -42.5q-89 0 -153 57.5t-64 155.5q0 75 32 130
t93 96.5t149 81t238 97.5v125q0 98 -47.5 134t-110.5 36q-55 0 -100 -27.5t-45 -72.5q0 -10 5 -39t5 -41q0 -32 -26 -60t-66 -28q-44 0 -66 29.5t-22 60.5q0 78 86.5 152.5t247.5 74.5q139 0 206.5 -51.5t83 -118.5t15.5 -158v-399q0 -59 10 -89t49 -30q44 0 92 39z
M731 1024h-63l-224 180l-221 -180h-61l227 293h113zM713 1229h-66l268 268q28 28 42.5 34.5t35.5 6.5q37 0 47.5 -20t10.5 -37q0 -45 -56 -74z" />
    <glyph glyph-name="abthhuyen" unicode="&#x1ea7;" horiz-adv-x="909" 
d="M588 252v297q-202 -67 -267 -140t-65 -147v-4q0 -70 38.5 -115t96.5 -45q29 0 68 13t59 24q31 15 46.5 30.5t19.5 35t4 51.5zM905 135v-53q-56 -65 -99.5 -83.5t-82.5 -18.5q-123 0 -133 149q-71 -64 -145 -106.5t-152 -42.5q-89 0 -153 57.5t-64 155.5q0 75 32 130
t93 96.5t149 81t238 97.5v125q0 98 -47.5 134t-110.5 36q-55 0 -100 -27.5t-45 -72.5q0 -10 5 -39t5 -41q0 -32 -26 -60t-66 -28q-44 0 -66 29.5t-22 60.5q0 78 86.5 152.5t247.5 74.5q139 0 206.5 -51.5t83 -118.5t15.5 -158v-399q0 -59 10 -89t49 -30q44 0 92 39z
M731 1024h-63l-224 180l-221 -180h-61l227 293h113zM745 1323h-71l-281 182q-51 38 -51 76q0 15 10 35t45 20q23 0 35.5 -6.5t42.5 -34.5z" />
    <glyph glyph-name="abthhoi" unicode="&#x1ea9;" horiz-adv-x="909" 
d="M588 252v297q-202 -67 -267 -140t-65 -147v-4q0 -70 38.5 -115t96.5 -45q29 0 68 13t59 24q31 15 46.5 30.5t19.5 35t4 51.5zM905 135v-53q-56 -65 -99.5 -83.5t-82.5 -18.5q-123 0 -133 149q-71 -64 -145 -106.5t-152 -42.5q-89 0 -153 57.5t-64 155.5q0 75 32 130
t93 96.5t149 81t238 97.5v125q0 98 -47.5 134t-110.5 36q-55 0 -100 -27.5t-45 -72.5q0 -10 5 -39t5 -41q0 -32 -26 -60t-66 -28q-44 0 -66 29.5t-22 60.5q0 78 86.5 152.5t247.5 74.5q139 0 206.5 -51.5t83 -118.5t15.5 -158v-399q0 -59 10 -89t49 -30q44 0 92 39z
M731 1024h-63l-224 180l-221 -180h-61l227 293h113zM649 1610h-4q-55 -18 -55 -47q0 -12 12.5 -28.5t13.5 -29.5q0 -28 -18 -44.5t-43 -16.5q-49 0 -49 61q5 69 52.5 115.5t139.5 46.5q96 -3 150 -37t61 -121q0 -55 -38.5 -99.5t-79.5 -68.5q-10 -8 -28 -20.5t-25.5 -26
t-8.5 -39.5h-67q3 49 29.5 81.5t57.5 64.5t33 65q0 144 -133 144z" />
    <glyph glyph-name="abthnga" unicode="&#x1eab;" horiz-adv-x="909" 
d="M588 252v297q-202 -67 -267 -140t-65 -147v-4q0 -70 38.5 -115t96.5 -45q29 0 68 13t59 24q31 15 46.5 30.5t19.5 35t4 51.5zM905 135v-53q-56 -65 -99.5 -83.5t-82.5 -18.5q-123 0 -133 149q-71 -64 -145 -106.5t-152 -42.5q-89 0 -153 57.5t-64 155.5q0 75 32 130
t93 96.5t149 81t238 97.5v125q0 98 -47.5 134t-110.5 36q-55 0 -100 -27.5t-45 -72.5q0 -10 5 -39t5 -41q0 -32 -26 -60t-66 -28q-44 0 -66 29.5t-22 60.5q0 78 86.5 152.5t247.5 74.5q139 0 206.5 -51.5t83 -118.5t15.5 -158v-399q0 -59 10 -89t49 -30q44 0 92 39z
M731 1024h-63l-224 180l-221 -180h-61l227 293h113zM702 1618h54q-20 -79 -60 -137t-133 -58q-34 0 -58.5 8t-86.5 35l-41 19q-38 18 -64 18q-71 0 -98 -84h-53q8 45 30.5 87t64 70t97.5 28q53 0 117 -31l43 -21q55 -26 84 -26q37 0 59.5 19t44.5 73z" />
    <glyph glyph-name="abthnang" unicode="&#x1ead;" horiz-adv-x="909" 
d="M588 252v297q-202 -67 -267 -140t-65 -147v-4q0 -70 38.5 -115t96.5 -45q29 0 68 13t59 24q31 15 46.5 30.5t19.5 35t4 51.5zM905 135v-53q-56 -65 -99.5 -83.5t-82.5 -18.5q-123 0 -133 149q-71 -64 -145 -106.5t-152 -42.5q-89 0 -153 57.5t-64 155.5q0 75 32 130
t93 96.5t149 81t238 97.5v125q0 98 -47.5 134t-110.5 36q-55 0 -100 -27.5t-45 -72.5q0 -10 5 -39t5 -41q0 -32 -26 -60t-66 -28q-44 0 -66 29.5t-22 60.5q0 78 86.5 152.5t247.5 74.5q139 0 206.5 -51.5t83 -118.5t15.5 -158v-399q0 -59 10 -89t49 -30q44 0 92 39z
M731 1024h-63l-224 180l-221 -180h-61l227 293h113zM367 -215q0 32 23.5 62t66.5 30q41 0 67.5 -26.5t26.5 -65.5q0 -38 -27 -65t-67 -27q-44 0 -67 30t-23 62z" />
    <glyph glyph-name="abhoasac" unicode="&#x1ea4;" horiz-adv-x="1479" 
d="M1446 39v-39h-522v39q70 0 106.5 14t36.5 64q0 35 -39 129l-84 196h-536l-95 -239q-16 -43 -16 -78q0 -55 41.5 -70.5t97.5 -15.5v-39h-405v39q65 4 104 45q45 49 150 291l426 1005h41l510 -1163q36 -81 58.5 -114.5t50.5 -47t75 -16.5zM442 526h473l-237 564zM1008 1458
h-64l-223 180l-221 -180h-62l228 293h112zM989 1663h-65l268 268q28 28 42 34.5t36 6.5q36 0 46.5 -20t10.5 -37q0 -43 -55 -74z" />
    <glyph glyph-name="abhoahuyen" unicode="&#x1ea6;" horiz-adv-x="1479" 
d="M1446 39v-39h-522v39q70 0 106.5 14t36.5 64q0 35 -39 129l-84 196h-536l-95 -239q-16 -43 -16 -78q0 -55 41.5 -70.5t97.5 -15.5v-39h-405v39q65 4 104 45q45 49 150 291l426 1005h41l510 -1163q36 -81 58.5 -114.5t50.5 -47t75 -16.5zM442 526h473l-237 564zM1008 1458
h-64l-223 180l-221 -180h-62l228 293h112zM1022 1757h-72l-280 182q-52 37 -52 76q0 15 10 35.5t46 20.5q22 0 35 -6.5t43 -34.5z" />
    <glyph glyph-name="abhoahoi" unicode="&#x1ea8;" horiz-adv-x="1479" 
d="M1446 39v-39h-522v39q70 0 106.5 14t36.5 64q0 35 -39 129l-84 196h-536l-95 -239q-16 -43 -16 -78q0 -55 41.5 -70.5t97.5 -15.5v-39h-405v39q65 4 104 45q45 49 150 291l426 1005h41l510 -1163q36 -81 58.5 -114.5t50.5 -47t75 -16.5zM442 526h473l-237 564zM1008 1458
h-64l-223 180l-221 -180h-62l228 293h112zM926 2044h-4q-56 -18 -56 -47q0 -13 13 -30.5t14 -27.5q0 -25 -19 -43t-43 -18q-20 0 -34.5 14.5t-14.5 46.5q5 70 53 116t140 46q95 -3 149.5 -37t61.5 -120q0 -54 -41.5 -102t-77.5 -66q-16 -12 -29.5 -21.5t-22 -23t-9.5 -41.5
h-68q3 50 29.5 81.5t58 64t33.5 65.5q0 143 -133 143z" />
    <glyph glyph-name="abhoanga" unicode="&#x1eaa;" horiz-adv-x="1479" 
d="M1446 39v-39h-522v39q70 0 106.5 14t36.5 64q0 35 -39 129l-84 196h-536l-95 -239q-16 -43 -16 -78q0 -55 41.5 -70.5t97.5 -15.5v-39h-405v39q65 4 104 45q45 49 150 291l426 1005h41l510 -1163q36 -81 58.5 -114.5t50.5 -47t75 -16.5zM442 526h473l-237 564zM1008 1458
h-64l-223 180l-221 -180h-62l228 293h112zM979 2052h53q-21 -82 -60 -138t-132 -56q-35 0 -60.5 8t-85.5 35l-41 18q-36 18 -63 18q-46 0 -66.5 -24t-31.5 -60h-54q15 74 62 129.5t131 55.5q56 0 117 -31l43 -20q49 -27 83 -27q38 0 60.5 19t44.5 73z" />
    <glyph glyph-name="abhoanang" unicode="&#x1eac;" horiz-adv-x="1479" 
d="M1446 39v-39h-522v39q70 0 106.5 14t36.5 64q0 35 -39 129l-84 196h-536l-95 -239q-16 -43 -16 -78q0 -55 41.5 -70.5t97.5 -15.5v-39h-405v39q65 4 104 45q45 49 150 291l426 1005h41l510 -1163q36 -81 58.5 -114.5t50.5 -47t75 -16.5zM442 526h473l-237 564zM1008 1458
h-64l-223 180l-221 -180h-62l228 293h112zM612 -231q0 18 10 40t30 37t50 15q43 0 69 -26t26 -66t-26.5 -66.5t-68.5 -26.5q-43 0 -66.5 30t-23.5 63z" />
    <glyph glyph-name="ebthsac" unicode="&#x1ebf;" horiz-adv-x="909" 
d="M836 336l32 -14q-20 -59 -66.5 -134.5t-141.5 -141.5t-226 -66q-114 0 -201 54.5t-134.5 157.5t-47.5 246q0 135 40 232.5t103 157t136.5 87t138.5 27.5q154 0 249 -91.5t111 -283.5h-636q11 -168 61 -268.5t118.5 -139t145.5 -38.5q119 0 189.5 61.5t128.5 153.5z
M199 633h422q-15 107 -52.5 171t-144.5 64q-90 0 -146 -53t-79 -182zM723 1032h-64l-223 180l-221 -180h-61l227 293h113zM705 1237h-66l268 268q28 28 42.5 34.5t35.5 6.5q36 0 46.5 -20t10.5 -37q0 -45 -55 -74z" />
    <glyph glyph-name="ebthhuyen" unicode="&#x1ec1;" horiz-adv-x="909" 
d="M836 336l32 -14q-20 -59 -66.5 -134.5t-141.5 -141.5t-226 -66q-114 0 -201 54.5t-134.5 157.5t-47.5 246q0 135 40 232.5t103 157t136.5 87t138.5 27.5q154 0 249 -91.5t111 -283.5h-636q11 -168 61 -268.5t118.5 -139t145.5 -38.5q119 0 189.5 61.5t128.5 153.5z
M199 633h422q-15 107 -52.5 171t-144.5 64q-90 0 -146 -53t-79 -182zM723 1032h-64l-223 180l-221 -180h-61l227 293h113zM737 1331h-71l-281 182q-51 38 -51 76q0 15 10 35.5t45 20.5q23 0 35.5 -6.5t42.5 -34.5z" />
    <glyph glyph-name="ebthhoi" unicode="&#x1ec3;" horiz-adv-x="909" 
d="M836 336l32 -14q-20 -59 -66.5 -134.5t-141.5 -141.5t-226 -66q-114 0 -201 54.5t-134.5 157.5t-47.5 246q0 135 40 232.5t103 157t136.5 87t138.5 27.5q154 0 249 -91.5t111 -283.5h-636q11 -168 61 -268.5t118.5 -139t145.5 -38.5q119 0 189.5 61.5t128.5 153.5z
M199 633h422q-15 107 -52.5 171t-144.5 64q-90 0 -146 -53t-79 -182zM723 1032h-64l-223 180l-221 -180h-61l227 293h113zM641 1618h-4q-55 -17 -55 -47q0 -12 12.5 -28.5t13.5 -29.5q0 -27 -18 -44t-43 -17q-49 0 -49 61q5 69 52.5 115.5t139.5 46.5q96 -3 150 -37t61 -120
q0 -54 -41.5 -102t-77.5 -66q-17 -13 -30.5 -22.5t-21.5 -24t-9 -39.5h-68q3 50 29.5 81.5t58 64t33.5 65.5q0 143 -133 143z" />
    <glyph glyph-name="ebthnga" unicode="&#x1ec5;" horiz-adv-x="909" 
d="M836 336l32 -14q-20 -59 -66.5 -134.5t-141.5 -141.5t-226 -66q-114 0 -201 54.5t-134.5 157.5t-47.5 246q0 135 40 232.5t103 157t136.5 87t138.5 27.5q154 0 249 -91.5t111 -283.5h-636q11 -168 61 -268.5t118.5 -139t145.5 -38.5q119 0 189.5 61.5t128.5 153.5z
M199 633h422q-15 107 -52.5 171t-144.5 64q-90 0 -146 -53t-79 -182zM723 1032h-64l-223 180l-221 -180h-61l227 293h113zM694 1626h54q-20 -79 -60 -136.5t-133 -57.5q-34 0 -58.5 8t-86.5 35l-41 18q-38 18 -64 18q-71 0 -98 -84h-53q8 45 30.5 87t64 70t97.5 28t117 -31
l43 -20q49 -27 84 -27q37 0 59.5 19t44.5 73z" />
    <glyph glyph-name="ebthnang" unicode="&#x1ec7;" horiz-adv-x="909" 
d="M836 336l32 -14q-20 -59 -66.5 -134.5t-141.5 -141.5t-226 -66q-114 0 -201 54.5t-134.5 157.5t-47.5 246q0 135 40 232.5t103 157t136.5 87t138.5 27.5q154 0 249 -91.5t111 -283.5h-636q11 -168 61 -268.5t118.5 -139t145.5 -38.5q119 0 189.5 61.5t128.5 153.5z
M199 633h422q-15 107 -52.5 171t-144.5 64q-90 0 -146 -53t-79 -182zM723 1032h-64l-223 180l-221 -180h-61l227 293h113zM340 -215q0 19 10 41t30 36.5t50 14.5q41 0 67.5 -26.5t26.5 -65.5q0 -38 -27 -65t-67 -27q-31 0 -51 14.5t-29.5 36t-9.5 41.5z" />
    <glyph glyph-name="ebhoasac" unicode="&#x1ebe;" horiz-adv-x="1251" 
d="M1223 346l-93 -346h-1105v39q72 5 108.5 18t53 50.5t16.5 115.5v910q0 80 -17 116.5t-53.5 49.5t-107.5 18v39h1087l6 -293h-51q-15 92 -44.5 137.5t-89.5 61.5t-177 16h-277q-38 0 -52.5 -10.5t-14.5 -59.5v-454h315q69 0 109 10t62 31.5t34 59t20 93.5h47v-475h-47
q-13 85 -32.5 125t-60 54t-132.5 16l-315 4v-508q0 -47 14 -62.5t68 -19.5t223 -4q98 0 167 13t119.5 43.5t89.5 82.5t72 129h58zM905 1444h-63l-224 180l-221 -180h-61l227 293h113zM887 1649h-66l269 268q27 28 41.5 34.5t35.5 6.5q37 0 47.5 -20t10.5 -37q0 -45 -56 -74z
" />
    <glyph glyph-name="ebhoahuyen" unicode="&#x1ec0;" horiz-adv-x="1251" 
d="M1223 346l-93 -346h-1105v39q72 5 108.5 18t53 50.5t16.5 115.5v910q0 80 -17 116.5t-53.5 49.5t-107.5 18v39h1087l6 -293h-51q-15 92 -44.5 137.5t-89.5 61.5t-177 16h-277q-38 0 -52.5 -10.5t-14.5 -59.5v-454h315q69 0 109 10t62 31.5t34 59t20 93.5h47v-475h-47
q-13 85 -32.5 125t-60 54t-132.5 16l-315 4v-508q0 -47 14 -62.5t68 -19.5t223 -4q98 0 167 13t119.5 43.5t89.5 82.5t72 129h58zM905 1444h-63l-224 180l-221 -180h-61l227 293h113zM920 1743h-72l-281 182q-51 36 -51 76q0 15 10 35t45 20q23 0 35.5 -6.5t42.5 -34.5z" />
    <glyph glyph-name="ebhoahoi" unicode="&#x1ec2;" horiz-adv-x="1251" 
d="M1223 346l-93 -346h-1105v39q72 5 108.5 18t53 50.5t16.5 115.5v910q0 80 -17 116.5t-53.5 49.5t-107.5 18v39h1087l6 -293h-51q-15 92 -44.5 137.5t-89.5 61.5t-177 16h-277q-38 0 -52.5 -10.5t-14.5 -59.5v-454h315q69 0 109 10t62 31.5t34 59t20 93.5h47v-475h-47
q-13 85 -32.5 125t-60 54t-132.5 16l-315 4v-508q0 -47 14 -62.5t68 -19.5t223 -4q98 0 167 13t119.5 43.5t89.5 82.5t72 129h58zM905 1444h-63l-224 180l-221 -180h-61l227 293h113zM823 2030h-4q-55 -21 -55 -48q0 -11 13 -28t14 -29q0 -27 -19 -44t-43 -17
q-20 0 -34.5 14.5t-14.5 46.5q5 69 52.5 115.5t139.5 46.5q96 -3 150 -37t61 -121q0 -55 -38.5 -99.5t-79.5 -68.5q-10 -8 -28 -20.5t-25.5 -26t-8.5 -39.5h-67q3 49 29.5 81.5t57.5 64.5t33 65q0 144 -133 144z" />
    <glyph glyph-name="ebhoanga" unicode="&#x1ec4;" horiz-adv-x="1251" 
d="M1223 346l-93 -346h-1105v39q72 5 108.5 18t53 50.5t16.5 115.5v910q0 80 -17 116.5t-53.5 49.5t-107.5 18v39h1087l6 -293h-51q-15 92 -44.5 137.5t-89.5 61.5t-177 16h-277q-38 0 -52.5 -10.5t-14.5 -59.5v-454h315q69 0 109 10t62 31.5t34 59t20 93.5h47v-475h-47
q-13 85 -32.5 125t-60 54t-132.5 16l-315 4v-508q0 -47 14 -62.5t68 -19.5t223 -4q98 0 167 13t119.5 43.5t89.5 82.5t72 129h58zM905 1444h-63l-224 180l-221 -180h-61l227 293h113zM877 2038h53q-20 -79 -60 -137t-133 -58q-34 0 -58.5 8t-86.5 35l-41 19q-38 18 -64 18
q-71 0 -98 -84h-53q13 71 61 127.5t131 56.5q55 0 117 -30l43 -21q55 -26 84 -26q37 0 60 19t45 73z" />
    <glyph glyph-name="ebhoanang" unicode="&#x1ec6;" horiz-adv-x="1251" 
d="M1223 346l-93 -346h-1105v39q72 5 108.5 18t53 50.5t16.5 115.5v910q0 80 -17 116.5t-53.5 49.5t-107.5 18v39h1087l6 -293h-51q-15 92 -44.5 137.5t-89.5 61.5t-177 16h-277q-38 0 -52.5 -10.5t-14.5 -59.5v-454h315q69 0 109 10t62 31.5t34 59t20 93.5h47v-475h-47
q-13 85 -32.5 125t-60 54t-132.5 16l-315 4v-508q0 -47 14 -62.5t68 -19.5t223 -4q98 0 167 13t119.5 43.5t89.5 82.5t72 129h58zM905 1444h-63l-224 180l-221 -180h-61l227 293h113zM510 -205q0 19 10 41t30 36.5t50 14.5q41 0 67.5 -26.5t26.5 -65.5q0 -38 -27 -65
t-67 -27q-31 0 -51 14.5t-29.5 36t-9.5 41.5z" />
    <glyph glyph-name="obthsac" unicode="&#x1ed1;" 
d="M502 942q100 0 184 -31.5t147.5 -95t96.5 -151.5t33 -197q0 -108 -51.5 -221.5t-154.5 -189.5t-249 -76q-130 0 -232 63.5t-159.5 174.5t-57.5 249q0 93 31 181t88.5 152.5t141 103t182.5 38.5zM537 37q59 0 113.5 34t91 117t36.5 220q0 131 -34 238.5t-101.5 173
t-157.5 65.5q-66 0 -121 -36.5t-87.5 -108t-32.5 -175.5q0 -101 25 -222t91 -213.5t177 -92.5zM803 1030h-64l-223 180l-221 -180h-62l228 293h112zM784 1235h-65l268 268q28 28 42 34.5t36 6.5q36 0 46.5 -20t10.5 -37q0 -43 -55 -74z" />
    <glyph glyph-name="obthhuyen" unicode="&#x1ed3;" 
d="M502 942q100 0 184 -31.5t147.5 -95t96.5 -151.5t33 -197q0 -108 -51.5 -221.5t-154.5 -189.5t-249 -76q-130 0 -232 63.5t-159.5 174.5t-57.5 249q0 93 31 181t88.5 152.5t141 103t182.5 38.5zM537 37q59 0 113.5 34t91 117t36.5 220q0 131 -34 238.5t-101.5 173
t-157.5 65.5q-66 0 -121 -36.5t-87.5 -108t-32.5 -175.5q0 -101 25 -222t91 -213.5t177 -92.5zM803 1030h-64l-223 180l-221 -180h-62l228 293h112zM817 1329h-72l-280 182q-51 36 -51 76q0 15 10 35t45 20q23 0 35 -6t43 -34z" />
    <glyph glyph-name="obthhoi" unicode="&#x1ed5;" 
d="M502 942q100 0 184 -31.5t147.5 -95t96.5 -151.5t33 -197q0 -108 -51.5 -221.5t-154.5 -189.5t-249 -76q-130 0 -232 63.5t-159.5 174.5t-57.5 249q0 93 31 181t88.5 152.5t141 103t182.5 38.5zM537 37q59 0 113.5 34t91 117t36.5 220q0 131 -34 238.5t-101.5 173
t-157.5 65.5q-66 0 -121 -36.5t-87.5 -108t-32.5 -175.5q0 -101 25 -222t91 -213.5t177 -92.5zM803 1030h-64l-223 180l-221 -180h-62l228 293h112zM721 1616h-4q-55 -17 -55 -47q0 -12 12.5 -28.5t13.5 -29.5q0 -25 -19 -43t-42 -18q-49 0 -49 61q5 69 52.5 115.5
t139.5 46.5q96 -3 150 -37t61 -120q0 -54 -41.5 -102t-77.5 -66q-17 -13 -30.5 -22.5t-21.5 -24t-9 -39.5h-68q3 50 29.5 81.5t58 64t33.5 65.5q0 143 -133 143z" />
    <glyph glyph-name="obthnga" unicode="&#x1ed7;" 
d="M502 942q100 0 184 -31.5t147.5 -95t96.5 -151.5t33 -197q0 -108 -51.5 -221.5t-154.5 -189.5t-249 -76q-130 0 -232 63.5t-159.5 174.5t-57.5 249q0 93 31 181t88.5 152.5t141 103t182.5 38.5zM537 37q59 0 113.5 34t91 117t36.5 220q0 131 -34 238.5t-101.5 173
t-157.5 65.5q-66 0 -121 -36.5t-87.5 -108t-32.5 -175.5q0 -101 25 -222t91 -213.5t177 -92.5zM803 1030h-64l-223 180l-221 -180h-62l228 293h112zM774 1624h53q-21 -82 -60 -138t-132 -56q-34 0 -61 8.5t-85 34.5l-40 18q-38 18 -64 18q-46 0 -66.5 -24t-31.5 -60h-54
q15 74 62 129.5t131 55.5q53 0 117 -31l43 -20q49 -27 84 -27q37 0 59.5 19t44.5 73z" />
    <glyph glyph-name="obthnang" unicode="&#x1ed9;" 
d="M502 942q100 0 184 -31.5t147.5 -95t96.5 -151.5t33 -197q0 -108 -51.5 -221.5t-154.5 -189.5t-249 -76q-130 0 -232 63.5t-159.5 174.5t-57.5 249q0 93 31 181t88.5 152.5t141 103t182.5 38.5zM537 37q59 0 113.5 34t91 117t36.5 220q0 131 -34 238.5t-101.5 173
t-157.5 65.5q-66 0 -121 -36.5t-87.5 -108t-32.5 -175.5q0 -101 25 -222t91 -213.5t177 -92.5zM803 1030h-64l-223 180l-221 -180h-62l228 293h112zM420 -215q0 32 23.5 62t66.5 30q41 0 67.5 -26.5t26.5 -65.5q0 -38 -27 -65t-67 -27q-44 0 -67 30t-23 62z" />
    <glyph glyph-name="obhoasac" unicode="&#x1ed0;" horiz-adv-x="1479" 
d="M739 -29q-184 0 -337.5 86t-242.5 246.5t-89 372.5q0 169 55.5 304t150 224t215 134.5t248.5 45.5q127 0 249.5 -46t215.5 -134t149 -223.5t56 -304.5q0 -212 -88.5 -372.5t-243 -246.5t-338.5 -86zM739 45q119 0 218.5 66.5t159 209t59.5 357.5q0 323 -128.5 478
t-308.5 155q-179 0 -307.5 -155t-128.5 -478q0 -162 34.5 -283t97 -199.5t140 -114.5t164.5 -36zM1026 1458h-63l-224 180l-221 -180h-61l227 293h113zM1008 1663h-66l268 268q28 28 42.5 34.5t35.5 6.5q37 0 47.5 -20t10.5 -37q0 -45 -56 -74z" />
    <glyph glyph-name="obhoahuyen" unicode="&#x1ed2;" horiz-adv-x="1479" 
d="M739 -29q-184 0 -337.5 86t-242.5 246.5t-89 372.5q0 169 55.5 304t150 224t215 134.5t248.5 45.5q127 0 249.5 -46t215.5 -134t149 -223.5t56 -304.5q0 -212 -88.5 -372.5t-243 -246.5t-338.5 -86zM739 45q119 0 218.5 66.5t159 209t59.5 357.5q0 323 -128.5 478
t-308.5 155q-179 0 -307.5 -155t-128.5 -478q0 -162 34.5 -283t97 -199.5t140 -114.5t164.5 -36zM1026 1458h-63l-224 180l-221 -180h-61l227 293h113zM1040 1757h-71l-281 182q-51 38 -51 76q0 15 10 35.5t45 20.5q23 0 35.5 -6.5t42.5 -34.5z" />
    <glyph glyph-name="obhoahoi" unicode="&#x1ed4;" horiz-adv-x="1479" 
d="M739 -29q-184 0 -337.5 86t-242.5 246.5t-89 372.5q0 169 55.5 304t150 224t215 134.5t248.5 45.5q127 0 249.5 -46t215.5 -134t149 -223.5t56 -304.5q0 -212 -88.5 -372.5t-243 -246.5t-338.5 -86zM739 45q119 0 218.5 66.5t159 209t59.5 357.5q0 323 -128.5 478
t-308.5 155q-179 0 -307.5 -155t-128.5 -478q0 -162 34.5 -283t97 -199.5t140 -114.5t164.5 -36zM1026 1458h-63l-224 180l-221 -180h-61l227 293h113zM944 2044h-4q-55 -18 -55 -47q0 -12 12.5 -28.5t13.5 -29.5q0 -27 -18 -44t-43 -17q-49 0 -49 61q5 69 52.5 115.5
t139.5 46.5q96 -3 150 -37t61 -120q0 -54 -41.5 -102t-77.5 -66q-17 -13 -30.5 -22.5t-21.5 -24t-9 -39.5h-68q2 49 28 79.5t58.5 64.5t34.5 67q0 143 -133 143z" />
    <glyph glyph-name="obhoanga" unicode="&#x1ed6;" horiz-adv-x="1479" 
d="M739 -29q-184 0 -337.5 86t-242.5 246.5t-89 372.5q0 169 55.5 304t150 224t215 134.5t248.5 45.5q127 0 249.5 -46t215.5 -134t149 -223.5t56 -304.5q0 -212 -88.5 -372.5t-243 -246.5t-338.5 -86zM739 45q119 0 218.5 66.5t159 209t59.5 357.5q0 323 -128.5 478
t-308.5 155q-179 0 -307.5 -155t-128.5 -478q0 -162 34.5 -283t97 -199.5t140 -114.5t164.5 -36zM1026 1458h-63l-224 180l-221 -180h-61l227 293h113zM997 2052h54q-20 -79 -60 -136.5t-133 -57.5q-34 0 -58.5 8t-86.5 35l-41 18q-38 18 -64 18q-71 0 -98 -84h-53
q8 45 30.5 87t64 70t97.5 28t117 -31l43 -20q49 -27 84 -27q37 0 59.5 19t44.5 73z" />
    <glyph glyph-name="obhoanang" unicode="&#x1ed8;" horiz-adv-x="1479" 
d="M739 -29q-184 0 -337.5 86t-242.5 246.5t-89 372.5q0 169 55.5 304t150 224t215 134.5t248.5 45.5q127 0 249.5 -46t215.5 -134t149 -223.5t56 -304.5q0 -212 -88.5 -372.5t-243 -246.5t-338.5 -86zM739 45q119 0 218.5 66.5t159 209t59.5 357.5q0 323 -128.5 478
t-308.5 155q-179 0 -307.5 -155t-128.5 -478q0 -162 34.5 -283t97 -199.5t140 -114.5t164.5 -36zM1026 1458h-63l-224 180l-221 -180h-61l227 293h113zM631 -242q0 32 23.5 62t66.5 30q40 0 67 -27t27 -65t-27 -65t-67 -27q-42 0 -66 30t-24 62z" />
    <glyph glyph-name="asacth" unicode="&#xf00a;" horiz-adv-x="0" 
d="M-608 1049h-66l268 268q28 28 42.5 34.5t35.5 6.5q37 0 47.5 -20t10.5 -38q0 -44 -56 -73z" />
    <glyph glyph-name="ahuyenth" unicode="&#xf00f;" horiz-adv-x="0" 
d="M-360 1030h-72l-281 182q-51 38 -51 76q0 15 10 35t45 20q23 0 35 -6t43 -34z" />
    <glyph glyph-name="ahoith" unicode="&#xf014;" horiz-adv-x="0" 
d="M-580 1399h-4q-55 -18 -55 -47q0 -13 13 -30.5t14 -27.5q0 -27 -19 -44t-43 -17q-20 0 -34.5 14.5t-14.5 46.5q5 69 52.5 115.5t140.5 46.5q95 -3 149.5 -37.5t61.5 -120.5q0 -55 -40.5 -101t-78.5 -67q-10 -8 -28 -20.5t-25.5 -26t-8.5 -39.5h-67q3 49 29 81t58 66
t34 64q0 144 -134 144z" />
    <glyph glyph-name="angath" unicode="&#xf019;" horiz-adv-x="0" 
d="M-270 1243h53q-21 -81 -60.5 -137.5t-132.5 -56.5q-34 0 -58.5 8t-86.5 35l-41 18q-36 18 -63 18q-72 0 -99 -84h-53q13 71 61 128t132 57q55 0 116 -31l43 -20q52 -27 84 -27q37 0 60 19t45 73z" />
    <glyph glyph-name="angath" unicode="&#xf01b;" horiz-adv-x="0" 
d="M-270 1243h53q-21 -81 -60.5 -137.5t-132.5 -56.5q-34 0 -58.5 8t-86.5 35l-41 18q-36 18 -63 18q-72 0 -99 -84h-53q13 71 61 128t132 57q55 0 116 -31l43 -20q52 -27 84 -27q37 0 60 19t45 73z" />
    <glyph glyph-name="angath" unicode="&#xf01a;" horiz-adv-x="0" 
d="M-270 1243h53q-21 -81 -60.5 -137.5t-132.5 -56.5q-34 0 -58.5 8t-86.5 35l-41 18q-36 18 -63 18q-72 0 -99 -84h-53q13 71 61 128t132 57q55 0 116 -31l43 -20q52 -27 84 -27q37 0 60 19t45 73z" />
    <glyph glyph-name="anangth" unicode="&#xf023;" horiz-adv-x="0" 
d="M-606 -225q0 32 23.5 62t66.5 30q41 0 67.5 -26.5t26.5 -65.5q0 -40 -27 -66t-67 -26q-44 0 -67 30t-23 62z" />
    <glyph glyph-name="anangth" unicode="&#xf02c;" horiz-adv-x="0" 
d="M-606 -225q0 32 23.5 62t66.5 30q41 0 67.5 -26.5t26.5 -65.5q0 -40 -27 -66t-67 -26q-44 0 -67 30t-23 62z" />
    <glyph glyph-name="anangth" unicode="&#xf028;" horiz-adv-x="0" 
d="M-606 -225q0 32 23.5 62t66.5 30q41 0 67.5 -26.5t26.5 -65.5q0 -40 -27 -66t-67 -26q-44 0 -67 30t-23 62z" />
    <glyph glyph-name="anangth" unicode="&#xf027;" horiz-adv-x="0" 
d="M-606 -225q0 32 23.5 62t66.5 30q41 0 67.5 -26.5t26.5 -65.5q0 -40 -27 -66t-67 -26q-44 0 -67 30t-23 62z" />
    <glyph glyph-name="anangth" unicode="&#xf026;" horiz-adv-x="0" 
d="M-606 -225q0 32 23.5 62t66.5 30q41 0 67.5 -26.5t26.5 -65.5q0 -40 -27 -66t-67 -26q-44 0 -67 30t-23 62z" />
    <glyph glyph-name="anangth" unicode="&#xf025;" horiz-adv-x="0" 
d="M-606 -225q0 32 23.5 62t66.5 30q41 0 67.5 -26.5t26.5 -65.5q0 -40 -27 -66t-67 -26q-44 0 -67 30t-23 62z" />
    <glyph glyph-name="anangth" unicode="&#xf024;" horiz-adv-x="0" 
d="M-606 -225q0 32 23.5 62t66.5 30q41 0 67.5 -26.5t26.5 -65.5q0 -40 -27 -66t-67 -26q-44 0 -67 30t-23 62z" />
    <glyph glyph-name="aasacth" unicode="&#xf009;" horiz-adv-x="0" 
d="M-455 1368h-65l268 268q28 28 42 34.5t36 6.5q36 0 46.5 -20t10.5 -37q0 -43 -55 -74z" />
    <glyph glyph-name="aahuyenth" unicode="&#xf00e;" horiz-adv-x="0" 
d="M-371 1360h-71l-281 182q-51 36 -51 76q0 15 10 35t45 20q23 0 35.5 -6.5t42.5 -34.5z" />
    <glyph glyph-name="aahoith" unicode="&#xf013;" horiz-adv-x="0" 
d="M-487 1698h-5q-55 -18 -55 -47q0 -13 13 -30.5t14 -27.5q0 -27 -19 -44t-43 -17q-20 0 -34.5 14.5t-14.5 46.5q5 70 53 116t140 46q95 -3 149.5 -37.5t61.5 -120.5q0 -55 -41.5 -102t-77.5 -65q-16 -12 -31 -23t-22.5 -24.5t-8.5 -39.5h-67q3 49 29 81t58 65t34 65
q0 144 -133 144z" />
    <glyph glyph-name="aangath" unicode="&#xf018;" horiz-adv-x="0" 
d="M-178 1604h53q-20 -82 -59.5 -138.5t-132.5 -56.5q-35 0 -59.5 8t-86.5 35l-41 18q-35 19 -63 19q-46 0 -65 -22.5t-34 -61.5h-53q13 71 61 127.5t132 56.5q54 0 116 -30l43 -21q57 -27 84 -27q38 0 60.5 19.5t44.5 73.5z" />
    <glyph glyph-name="absacth" unicode="&#x301;" horiz-adv-x="0" 
d="M-258 1260h-66l269 268q28 28 42 34.5t36 6.5q36 0 46.5 -20t10.5 -38q0 -42 -55 -73z" />
    <glyph glyph-name="absacth" unicode="&#x302;" horiz-adv-x="0" 
d="M-258 1260h-66l269 268q28 28 42 34.5t36 6.5q36 0 46.5 -20t10.5 -38q0 -42 -55 -73z" />
    <glyph glyph-name="abhuyenth" unicode="&#x300;" horiz-adv-x="0" 
d="M-215 1343h-72l-280 183q-51 34 -51 76q0 15 10 35t45 20q22 0 35 -6.5t43 -34.5z" />
    <glyph glyph-name="abhoith" unicode="&#x309;" horiz-adv-x="0" 
d="M-311 1610h-4q-56 -18 -56 -47q0 -13 13 -30.5t14 -27.5q0 -27 -19 -44t-43 -17q-20 0 -34.5 14.5t-14.5 46.5q5 70 53 116t140 46q95 -3 149.5 -37t61.5 -121q0 -55 -40.5 -101t-78.5 -67q-10 -8 -27 -20t-24.5 -24.5t-9.5 -41.5h-68q3 49 29.5 81.5t58 64.5t33.5 65
q0 144 -133 144z" />
    <glyph glyph-name="abngath" unicode="&#x303;" horiz-adv-x="0" 
d="M-238 1618h54q-20 -79 -60 -137t-133 -58q-34 0 -58.5 8t-86.5 35l-41 19q-38 18 -64 18q-71 0 -98 -84h-53q8 45 30.5 87t64 70t97.5 28q53 0 117 -31l43 -21q52 -26 84 -26q37 0 59.5 19t44.5 73z" />
    <glyph glyph-name="asachoa" unicode="&#x341;" horiz-adv-x="0" 
d="M-793 1489h-65l268 268q28 28 42 34.5t36 6.5q36 0 46.5 -20t10.5 -37q0 -43 -55 -74z" />
    <glyph glyph-name="asachoa" unicode="&#xf007;" horiz-adv-x="0" 
d="M-793 1489h-65l268 268q28 28 42 34.5t36 6.5q36 0 46.5 -20t10.5 -37q0 -43 -55 -74z" />
    <glyph glyph-name="ahuyenhoa" unicode="&#x340;" horiz-adv-x="0" 
d="M-565 1491h-72l-281 182q-51 38 -51 76q0 15 10 35t46 20q22 0 34.5 -6.5t42.5 -34.5z" />
    <glyph glyph-name="ahuyenhoa" unicode="&#xf00c;" horiz-adv-x="0" 
d="M-565 1491h-72l-281 182q-51 38 -51 76q0 15 10 35t46 20q22 0 34.5 -6.5t42.5 -34.5z" />
    <glyph glyph-name="ahoihoa" unicode="&#xf011;" horiz-adv-x="0" 
d="M-774 1839h-4q-56 -18 -56 -47q0 -13 13 -29t14 -28q0 -26 -19 -44t-42 -18q-50 0 -50 62q7 69 54 115t139 46q95 -3 149.5 -36.5t61.5 -120.5q0 -54 -41.5 -102t-77.5 -66q-16 -12 -29.5 -21.5t-22 -23t-9.5 -41.5h-68q3 49 29.5 81.5t58 64.5t33.5 65q0 143 -133 143z
" />
    <glyph glyph-name="angahoa" unicode="&#x342;" horiz-adv-x="0" 
d="M-496 1683h54q-20 -79 -60 -136.5t-133 -57.5q-34 0 -58.5 8t-86.5 35l-41 18q-36 19 -64 19q-71 0 -98 -84h-53q8 45 30.5 87t63 69.5t98.5 27.5q56 0 117 -31l43 -20q54 -27 84 -27q37 0 59.5 19.5t44.5 72.5z" />
    <glyph glyph-name="angahoa" unicode="&#xf030;" horiz-adv-x="0" 
d="M-496 1683h54q-20 -79 -60 -136.5t-133 -57.5q-34 0 -58.5 8t-86.5 35l-41 18q-36 19 -64 19q-71 0 -98 -84h-53q8 45 30.5 87t63 69.5t98.5 27.5q56 0 117 -31l43 -20q54 -27 84 -27q37 0 59.5 19.5t44.5 72.5z" />
    <glyph glyph-name="angahoa" unicode="&#xf02e;" horiz-adv-x="0" 
d="M-496 1683h54q-20 -79 -60 -136.5t-133 -57.5q-34 0 -58.5 8t-86.5 35l-41 18q-36 19 -64 19q-71 0 -98 -84h-53q8 45 30.5 87t63 69.5t98.5 27.5q56 0 117 -31l43 -20q54 -27 84 -27q37 0 59.5 19.5t44.5 72.5z" />
    <glyph glyph-name="angahoa" unicode="&#xf01c;" horiz-adv-x="0" 
d="M-496 1683h54q-20 -79 -60 -136.5t-133 -57.5q-34 0 -58.5 8t-86.5 35l-41 18q-36 19 -64 19q-71 0 -98 -84h-53q8 45 30.5 87t63 69.5t98.5 27.5q56 0 117 -31l43 -20q54 -27 84 -27q37 0 59.5 19.5t44.5 72.5z" />
    <glyph glyph-name="angahoa" unicode="&#xf017;" horiz-adv-x="0" 
d="M-496 1683h54q-20 -79 -60 -136.5t-133 -57.5q-34 0 -58.5 8t-86.5 35l-41 18q-36 19 -64 19q-71 0 -98 -84h-53q8 45 30.5 87t63 69.5t98.5 27.5q56 0 117 -31l43 -20q54 -27 84 -27q37 0 59.5 19.5t44.5 72.5z" />
    <glyph glyph-name="angahoa" unicode="&#xf016;" horiz-adv-x="0" 
d="M-496 1683h54q-20 -79 -60 -136.5t-133 -57.5q-34 0 -58.5 8t-86.5 35l-41 18q-36 19 -64 19q-71 0 -98 -84h-53q8 45 30.5 87t63 69.5t98.5 27.5q56 0 117 -31l43 -20q54 -27 84 -27q37 0 59.5 19.5t44.5 72.5z" />
    <glyph glyph-name="ananghoa" unicode="&#x323;" horiz-adv-x="0" 
d="M-842 -225q0 19 10 41t30 36.5t50 14.5q43 0 69 -26t26 -66q0 -41 -26.5 -66.5t-68.5 -25.5q-31 0 -51 14.5t-29.5 36t-9.5 41.5z" />
    <glyph glyph-name="ananghoa" unicode="&#xf02b;" horiz-adv-x="0" 
d="M-842 -225q0 19 10 41t30 36.5t50 14.5q43 0 69 -26t26 -66q0 -41 -26.5 -66.5t-68.5 -25.5q-31 0 -51 14.5t-29.5 36t-9.5 41.5z" />
    <glyph glyph-name="ananghoa" unicode="&#xf029;" horiz-adv-x="0" 
d="M-842 -225q0 19 10 41t30 36.5t50 14.5q43 0 69 -26t26 -66q0 -41 -26.5 -66.5t-68.5 -25.5q-31 0 -51 14.5t-29.5 36t-9.5 41.5z" />
    <glyph glyph-name="ananghoa" unicode="&#xf022;" horiz-adv-x="0" 
d="M-842 -225q0 19 10 41t30 36.5t50 14.5q43 0 69 -26t26 -66q0 -41 -26.5 -66.5t-68.5 -25.5q-31 0 -51 14.5t-29.5 36t-9.5 41.5z" />
    <glyph glyph-name="ananghoa" unicode="&#xf021;" horiz-adv-x="0" 
d="M-842 -225q0 19 10 41t30 36.5t50 14.5q43 0 69 -26t26 -66q0 -41 -26.5 -66.5t-68.5 -25.5q-31 0 -51 14.5t-29.5 36t-9.5 41.5z" />
    <glyph glyph-name="ananghoa" unicode="&#xf020;" horiz-adv-x="0" 
d="M-842 -225q0 19 10 41t30 36.5t50 14.5q43 0 69 -26t26 -66q0 -41 -26.5 -66.5t-68.5 -25.5q-31 0 -51 14.5t-29.5 36t-9.5 41.5z" />
    <glyph glyph-name="ananghoa" unicode="&#xf01f;" horiz-adv-x="0" 
d="M-842 -225q0 19 10 41t30 36.5t50 14.5q43 0 69 -26t26 -66q0 -41 -26.5 -66.5t-68.5 -25.5q-31 0 -51 14.5t-29.5 36t-9.5 41.5z" />
    <glyph glyph-name="ananghoa" unicode="&#xf01e;" horiz-adv-x="0" 
d="M-842 -225q0 19 10 41t30 36.5t50 14.5q43 0 69 -26t26 -66q0 -41 -26.5 -66.5t-68.5 -25.5q-31 0 -51 14.5t-29.5 36t-9.5 41.5z" />
    <glyph glyph-name="aasachoa" horiz-adv-x="0" 
d="M-752 1788h-65l268 268q28 28 42 34.5t36 6.5q36 0 46.5 -20t10.5 -37q0 -43 -55 -74z" />
    <glyph glyph-name="aahuyenhoa" horiz-adv-x="0" 
d="M-657 1780h-72l-281 182q-51 36 -51 76q0 15 10 35t45 20q23 0 35.5 -6.5t42.5 -34.5z" />
    <glyph glyph-name="aahoihoa" horiz-adv-x="0" 
d="M-805 2138h-4q-55 -18 -55 -47q0 -12 12.5 -27.5t13.5 -29.5q0 -28 -18 -45t-43 -17q-49 0 -49 62q5 68 52.5 114.5t139.5 46.5q95 -3 149.5 -36.5t61.5 -120.5q0 -54 -41.5 -102t-77.5 -66q-17 -13 -30.5 -22.5t-21.5 -24t-9 -39.5h-68q2 48 28.5 80t58.5 65t34 66
q0 143 -133 143z" />
    <glyph glyph-name="aangahoa" horiz-adv-x="0" 
d="M-485 2023h53q-20 -79 -60 -136.5t-133 -57.5q-34 0 -58.5 8t-86.5 35l-41 18q-35 19 -63 19q-46 0 -66.5 -24t-32.5 -60h-53q13 71 61 127.5t131 56.5q56 0 117 -31l43 -20q57 -27 84 -27q37 0 60 19.5t45 72.5z" />
    <glyph glyph-name="absachoa" unicode="&#xf006;" horiz-adv-x="0" 
d="M-463 1679h-65l268 269q28 28 42 34.5t36 6.5q36 0 46.5 -20t10.5 -38q0 -42 -55 -73z" />
    <glyph glyph-name="abhuyenhoa" unicode="&#xf00b;" horiz-adv-x="0" 
d="M-430 1763h-72l-280 183q-52 35 -52 75q0 15 10 35.5t46 20.5q22 0 35 -6.5t43 -34.5z" />
    <glyph glyph-name="abhoihoa" unicode="&#xf010;" horiz-adv-x="0" 
d="M-537 1999h-4q-55 -18 -55 -47q0 -13 13 -30.5t14 -27.5q0 -25 -19 -43t-43 -18q-20 0 -34.5 14.5t-14.5 46.5q5 69 52.5 115.5t140.5 46.5q95 -3 149.5 -37.5t61.5 -120.5q0 -55 -41.5 -102t-77.5 -65q-16 -12 -30.5 -22t-22.5 -24.5t-9 -39.5h-67q3 50 29 81t58 65
t34 64q0 144 -134 144z" />
    <glyph glyph-name="abngahoa" unicode="&#xf015;" horiz-adv-x="0" 
d="M-473 2038h53q-20 -82 -59.5 -138.5t-132.5 -56.5q-35 0 -59.5 8t-86.5 35l-41 19q-36 18 -63 18q-46 0 -65 -22.5t-34 -61.5h-53q15 74 62 129t131 55q56 0 116 -30l43 -21q55 -26 84 -26q38 0 60.5 19t44.5 73z" />
    <glyph glyph-name="abngahoa" unicode="&#xf02f;" horiz-adv-x="0" 
d="M-473 2038h53q-20 -82 -59.5 -138.5t-132.5 -56.5q-35 0 -59.5 8t-86.5 35l-41 19q-36 18 -63 18q-46 0 -65 -22.5t-34 -61.5h-53q15 74 62 129t131 55q56 0 116 -30l43 -21q55 -26 84 -26q38 0 60.5 19t44.5 73z" />
    <glyph glyph-name="abngahoa" unicode="&#xf02d;" horiz-adv-x="0" 
d="M-473 2038h53q-20 -82 -59.5 -138.5t-132.5 -56.5q-35 0 -59.5 8t-86.5 35l-41 19q-36 18 -63 18q-46 0 -65 -22.5t-34 -61.5h-53q15 74 62 129t131 55q56 0 116 -30l43 -21q55 -26 84 -26q38 0 60.5 19t44.5 73z" />
    <glyph glyph-name="cth" horiz-adv-x="0" 
d="M-252 1309h55q-6 -54 -23.5 -113.5t-74.5 -111.5t-164 -52q-69 0 -126.5 30t-92.5 93t-35 152h54q14 -80 65 -124t137 -44q93 0 132.5 42.5t72.5 127.5z" />
    <glyph glyph-name="csacth" horiz-adv-x="0" 
d="M-252 1309h55q-6 -54 -23.5 -113.5t-74.5 -111.5t-164 -52q-69 0 -126.5 30t-92.5 93t-35 152h54q14 -80 65 -124t137 -44q93 0 132.5 42.5t72.5 127.5zM-465 1343h-65l268 269q28 28 42 34.5t36 6.5q36 0 46.5 -20t10.5 -38q0 -42 -55 -73z" />
    <glyph glyph-name="chuyenth" horiz-adv-x="0" 
d="M-252 1309h55q-6 -54 -23.5 -113.5t-74.5 -111.5t-164 -52q-69 0 -126.5 30t-92.5 93t-35 152h54q14 -80 65 -124t137 -44q93 0 132.5 42.5t72.5 127.5zM-350 1356h-72l-280 182q-52 35 -52 76q0 15 10 35t46 20q22 0 34.5 -6.5t42.5 -34.5z" />
    <glyph glyph-name="choith" horiz-adv-x="0" 
d="M-252 1309h55q-6 -54 -23.5 -113.5t-74.5 -111.5t-164 -52q-69 0 -126.5 30t-92.5 93t-35 152h54q14 -80 65 -124t137 -44q93 0 132.5 42.5t72.5 127.5zM-518 1704h-4q-56 -18 -56 -47q0 -13 13 -30.5t14 -27.5q0 -25 -19 -43t-42 -18q-50 0 -50 61q7 70 54 116t139 46
q95 -3 149.5 -36.5t61.5 -120.5q0 -54 -41.5 -102t-77.5 -66q-16 -12 -29.5 -21.5t-22 -23t-9.5 -41.5h-68q3 50 29.5 81.5t58 64t33.5 65.5q0 143 -133 143z" />
    <glyph glyph-name="cngath" horiz-adv-x="0" 
d="M-252 1309h55q-6 -54 -23.5 -113.5t-74.5 -111.5t-164 -52q-69 0 -126.5 30t-92.5 93t-35 152h54q14 -80 65 -124t137 -44q93 0 132.5 42.5t72.5 127.5zM-178 1610h53q-20 -82 -59.5 -138.5t-132.5 -56.5q-35 0 -59.5 8t-86.5 35l-41 19q-36 18 -63 18q-46 0 -65 -22.5
t-34 -61.5h-53q13 71 61 127.5t132 56.5q54 0 116 -30l43 -21q55 -26 84 -26q38 0 60.5 19t44.5 73z" />
    <glyph glyph-name="cnangth" horiz-adv-x="0" 
d="M-252 1309h55q-6 -54 -23.5 -113.5t-74.5 -111.5t-164 -52q-69 0 -126.5 30t-92.5 93t-35 152h54q14 -80 65 -124t137 -44q93 0 132.5 42.5t72.5 127.5zM-545 -217q0 19 10 41t30 36.5t50 14.5q43 0 69 -26t26 -66q0 -39 -26.5 -65.5t-68.5 -26.5q-31 0 -51 14.5
t-29.5 36t-9.5 41.5z" />
    <glyph glyph-name="choa" horiz-adv-x="0" 
d="M-528 1739h55q-30 -277 -262 -277q-69 0 -126.5 30t-92.5 93t-35 152h53q14 -80 65 -124t138 -44q92 0 132 42.5t73 127.5z" />
    <glyph glyph-name="csachoa" horiz-adv-x="0" 
d="M-528 1739h55q-30 -277 -262 -277q-69 0 -126.5 30t-92.5 93t-35 152h53q14 -80 65 -124t138 -44q92 0 132 42.5t73 127.5zM-741 1774h-66l268 268q28 28 42.5 34.5t35.5 6.5q37 0 47.5 -20t10.5 -38q0 -44 -56 -73z" />
    <glyph glyph-name="chuyenhoa" horiz-adv-x="0" 
d="M-528 1739h55q-30 -277 -262 -277q-69 0 -126.5 30t-92.5 93t-35 152h53q14 -80 65 -124t138 -44q92 0 132 42.5t73 127.5zM-627 1786h-71l-281 182q-51 36 -51 76q0 15 10 35t45 20q23 0 35.5 -6.5t42.5 -34.5z" />
    <glyph glyph-name="choihoa" horiz-adv-x="0" 
d="M-528 1739h55q-30 -277 -262 -277q-69 0 -126.5 30t-92.5 93t-35 152h53q14 -80 65 -124t138 -44q92 0 132 42.5t73 127.5zM-795 2134h-4q-55 -18 -55 -47q0 -13 13 -29t14 -28q0 -26 -19 -44t-43 -18q-20 0 -34.5 15.5t-14.5 46.5q5 68 52.5 114.5t140.5 46.5
q94 -3 148.5 -36.5t61.5 -120.5q0 -54 -40.5 -101.5t-77.5 -66.5q-16 -12 -30.5 -22t-22.5 -24.5t-9 -39.5h-67q3 50 29 81.5t57.5 64t33.5 65.5q0 143 -133 143z" />
    <glyph glyph-name="cngahoa" horiz-adv-x="0" 
d="M-528 1739h55q-30 -277 -262 -277q-69 0 -126.5 30t-92.5 93t-35 152h53q14 -80 65 -124t138 -44q92 0 132 42.5t73 127.5zM-455 2040h54q-20 -79 -60 -137t-133 -58q-34 0 -58.5 8t-86.5 35l-41 19q-38 18 -64 18q-71 0 -98 -84h-53q8 45 30.5 87t63 69.5t98.5 27.5
q55 0 117 -30l43 -21q52 -26 84 -26q37 0 59.5 19t44.5 73z" />
    <glyph glyph-name="cnanghoa" horiz-adv-x="0" 
d="M-528 1739h55q-30 -277 -262 -277q-69 0 -126.5 30t-92.5 93t-35 152h53q14 -80 65 -124t138 -44q92 0 132 42.5t73 127.5zM-872 -217q0 32 23.5 62t66.5 30q41 0 67.5 -26.5t26.5 -65.5q0 -38 -27 -65t-67 -27q-44 0 -67 30t-23 62z" />
    <glyph glyph-name="bth" horiz-adv-x="0" 
d="M-223 1028h-64l-223 180l-221 -180h-62l228 293h112z" />
    <glyph glyph-name="bsacth" horiz-adv-x="0" 
d="M-223 1028h-64l-223 180l-221 -180h-62l228 293h112zM-242 1233h-65l268 268q28 28 42 34.5t36 6.5q36 0 46.5 -20t10.5 -37q0 -43 -55 -74z" />
    <glyph glyph-name="bhuyenth" horiz-adv-x="0" 
d="M-223 1028h-64l-223 180l-221 -180h-62l228 293h112zM-209 1327h-72l-280 182q-51 36 -51 76q0 15 10 35t45 20q23 0 35.5 -6.5t42.5 -34.5z" />
    <glyph glyph-name="bhoith" horiz-adv-x="0" 
d="M-223 1028h-64l-223 180l-221 -180h-62l228 293h112zM-305 1614h-4q-56 -18 -56 -47q0 -13 13 -30.5t14 -27.5q0 -25 -19 -43t-42 -18q-50 0 -50 61q7 70 54 116t139 46q96 -3 150 -37t61 -121q0 -55 -41.5 -102t-77.5 -65q-16 -12 -29.5 -21.5t-22 -23t-9.5 -41.5h-68
q3 50 29 81t58 64t34 65q0 144 -133 144z" />
    <glyph glyph-name="bngath" horiz-adv-x="0" 
d="M-223 1028h-64l-223 180l-221 -180h-62l228 293h112zM-252 1622h53q-21 -82 -60 -138.5t-132 -56.5q-34 0 -61 8.5t-85 34.5l-41 19q-36 18 -63 18q-46 0 -66.5 -24t-31.5 -60h-54q15 74 62 129.5t131 55.5q53 0 117 -31l43 -21q52 -26 84 -26q37 0 59.5 19t44.5 73z" />
    <glyph glyph-name="bnangth" horiz-adv-x="0" 
d="M-223 1028h-64l-223 180l-221 -180h-62l228 293h112zM-588 -211q0 19 10 41t30 36.5t50 14.5q43 0 69 -26t26 -66q0 -39 -26.5 -65.5t-68.5 -26.5q-31 0 -51 14.5t-29.5 36t-9.5 41.5z" />
    <glyph glyph-name="bhoa" horiz-adv-x="0" 
d="M-449 1458h-63l-223 180l-221 -180h-62l227 293h113z" />
    <glyph glyph-name="bsachoa" horiz-adv-x="0" 
d="M-449 1458h-63l-223 180l-221 -180h-62l227 293h113zM-467 1663h-65l268 268q28 28 42 34.5t36 6.5q36 0 46.5 -20t10.5 -37q0 -43 -55 -74z" />
    <glyph glyph-name="bhuyenhoa" horiz-adv-x="0" 
d="M-449 1458h-63l-223 180l-221 -180h-62l227 293h113zM-434 1757h-72l-280 182q-52 37 -52 76q0 15 10 35.5t46 20.5q22 0 34.5 -6.5t42.5 -34.5z" />
    </font>
</defs>
</svg>
