<?xml version="1.0" standalone="no"?>
<!DOCTYPE svg PUBLIC "-//W3C//DTD SVG 1.1//EN" "http://www.w3.org/Graphics/SVG/1.1/DTD/svg11.dtd" >
<svg xmlns="http://www.w3.org/2000/svg" xmlns:xlink="http://www.w3.org/1999/xlink" version="1.1">
<metadata>
Created by FontForge 20201107 at Mon Oct 25 16:33:40 2021
 By Jimmy Wärting
Copyright 2011 The Montserrat Project Authors (https://github.com/JulietaUla/Montserrat)
</metadata>
<defs>
<font id="Montserrat-ExtraBold" horiz-adv-x="0" >
  <font-face 
    font-family="Montserrat ExtraBold"
    font-weight="800"
    font-stretch="normal"
    units-per-em="1000"
    panose-1="0 0 0 0 0 0 0 0 0 0"
    ascent="800"
    descent="-200"
    x-height="542"
    cap-height="700"
    bbox="-215 -268 1715 1088"
    underline-thickness="50"
    underline-position="-125"
    unicode-range="U+000D-FB02"
  />
<missing-glyph horiz-adv-x="587" 
d="M40 0v700h507v-700h-507zM120 70h347v560h-347v-560z" />
    <glyph glyph-name="fi" unicode="fi" horiz-adv-x="736" 
d="M83 0v536q0 98 58.5 156.5t167.5 58.5q35 0 69 -7t57 -21l-47 -134q-12 7 -27 11.5t-30 4.5q-30 0 -46.5 -17.5t-16.5 -53.5v-39l5 -79v-416h-190zM4 380v142h393v-142h-393zM484 0v542h190v-542h-190zM579 602q-52 0 -84 29t-32 72t32 72t84 29t84 -27.5t32 -70.5
q0 -45 -31.5 -74.5t-84.5 -29.5z" />
    <glyph glyph-name="fl" unicode="fl" horiz-adv-x="736" 
d="M83 0v536q0 98 58.5 156.5t167.5 58.5q35 0 69 -7t57 -21l-47 -134q-12 7 -27 11.5t-30 4.5q-30 0 -46.5 -17.5t-16.5 -53.5v-39l5 -79v-416h-190zM4 380v142h393v-142h-393zM484 0v742h190v-742h-190z" />
    <glyph glyph-name=".notdef" horiz-adv-x="587" 
d="M40 0v700h507v-700h-507zM120 70h347v560h-347v-560z" />
    <glyph glyph-name="A" unicode="A" horiz-adv-x="786" 
d="M-14 0l309 700h195l310 -700h-206l-242 603h78l-242 -603h-202zM155 136l51 146h342l51 -146h-444z" />
    <glyph glyph-name="Aacute" unicode="&#xc1;" horiz-adv-x="786" 
d="M-14 0l309 700h195l310 -700h-206l-242 603h78l-242 -603h-202zM155 136l51 146h342l51 -146h-444zM295 757l134 152h190l-188 -152h-136z" />
    <glyph glyph-name="Abreve" unicode="&#x102;" horiz-adv-x="786" 
d="M-14 0l309 700h195l310 -700h-206l-242 603h78l-242 -603h-202zM155 136l51 146h342l51 -146h-444zM393 748q-84 0 -138.5 43t-57.5 118h116q2 -31 24.5 -48.5t55.5 -17.5t56 17.5t24 48.5h116q-3 -75 -57.5 -118t-138.5 -43z" />
    <glyph glyph-name="uni1EAE" unicode="&#x1eae;" horiz-adv-x="786" 
d="M-14 0l309 700h195l310 -700h-206l-242 603h78l-242 -603h-202zM155 136l51 146h342l51 -146h-444zM393 748q-83 0 -137 35.5t-59 95.5h110q3 -20 26.5 -32.5t59.5 -12.5t59.5 12.5t26.5 32.5h110q-4 -60 -58.5 -95.5t-137.5 -35.5zM298 913l106 125h186l-161 -125h-131z
" />
    <glyph glyph-name="uni1EB6" unicode="&#x1eb6;" horiz-adv-x="786" 
d="M-14 0l309 700h195l310 -700h-206l-242 603h78l-242 -603h-202zM155 136l51 146h342l51 -146h-444zM393 -218q-33 0 -56 21t-23 56t23 57t56 22t56 -22t23 -57t-23 -56t-56 -21zM393 748q-84 0 -138.5 43t-57.5 118h116q2 -31 24.5 -48.5t55.5 -17.5t56 17.5t24 48.5h116
q-3 -75 -57.5 -118t-138.5 -43z" />
    <glyph glyph-name="uni1EB0" unicode="&#x1eb0;" horiz-adv-x="786" 
d="M-14 0l309 700h195l310 -700h-206l-242 603h78l-242 -603h-202zM155 136l51 146h342l51 -146h-444zM393 748q-83 0 -137 35.5t-59 95.5h110q3 -20 26.5 -32.5t59.5 -12.5t59.5 12.5t26.5 32.5h110q-4 -60 -58.5 -95.5t-137.5 -35.5zM358 913l-162 125h186l106 -125h-130z
" />
    <glyph glyph-name="uni1EB2" unicode="&#x1eb2;" horiz-adv-x="786" 
d="M-14 0l309 700h195l310 -700h-206l-242 603h78l-242 -603h-202zM155 136l51 146h342l51 -146h-444zM393 748q-83 0 -137 35.5t-59 95.5h110q3 -20 26.5 -32.5t59.5 -12.5t59.5 12.5t26.5 32.5h110q-4 -60 -58.5 -95.5t-137.5 -35.5zM423 883l-45 41q20 11 28 21.5t8 18.5
q0 12 -9 19.5t-23 7.5q-21 0 -45 -12l-30 54q19 12 42.5 18t48.5 6q45 0 72 -22.5t27 -60.5q0 -32 -21.5 -55.5t-52.5 -35.5z" />
    <glyph glyph-name="uni1EB4" unicode="&#x1eb4;" horiz-adv-x="786" 
d="M-14 0l309 700h195l310 -700h-206l-242 603h78l-242 -603h-202zM155 136l51 146h342l51 -146h-444zM393 748q-83 0 -137 35.5t-59 95.5h110q3 -20 26.5 -32.5t59.5 -12.5t59.5 12.5t26.5 32.5h110q-4 -60 -58.5 -95.5t-137.5 -35.5zM468 907q-35 0 -60 13t-44 25.5
t-34 12.5q-19 0 -30 -12t-13 -31h-95q1 65 34.5 100.5t92.5 35.5q35 0 60 -12.5t44 -25.5t35 -13q20 0 31.5 12.5t12.5 30.5h92q-1 -63 -33 -99.5t-93 -36.5z" />
    <glyph glyph-name="uni01CD" unicode="&#x1cd;" horiz-adv-x="786" 
d="M-14 0l309 700h195l310 -700h-206l-242 603h78l-242 -603h-202zM155 136l51 146h342l51 -146h-444zM311 757l-130 152h126l141 -124h-110l141 124h126l-130 -152h-164z" />
    <glyph glyph-name="Acircumflex" unicode="&#xc2;" horiz-adv-x="786" 
d="M-14 0l309 700h195l310 -700h-206l-242 603h78l-242 -603h-202zM155 136l51 146h342l51 -146h-444zM181 757l130 152h164l130 -152h-126l-141 125h110l-141 -125h-126z" />
    <glyph glyph-name="uni1EA4" unicode="&#x1ea4;" horiz-adv-x="786" 
d="M-14 0l309 700h195l310 -700h-206l-242 603h78l-242 -603h-202zM155 136l51 146h342l51 -146h-444zM181 757l131 122h162l131 -122h-127l-137 95h104l-137 -95h-127zM525 857l106 125h186l-161 -125h-131z" />
    <glyph glyph-name="uni1EAC" unicode="&#x1eac;" horiz-adv-x="786" 
d="M-14 0l309 700h195l310 -700h-206l-242 603h78l-242 -603h-202zM155 136l51 146h342l51 -146h-444zM393 -218q-33 0 -56 21t-23 56t23 57t56 22t56 -22t23 -57t-23 -56t-56 -21zM181 757l130 152h164l130 -152h-126l-141 125h110l-141 -125h-126z" />
    <glyph glyph-name="uni1EA6" unicode="&#x1ea6;" horiz-adv-x="786" 
d="M-14 0l309 700h195l310 -700h-206l-242 603h78l-242 -603h-202zM155 136l51 146h342l51 -146h-444zM181 757l131 122h162l131 -122h-127l-137 95h104l-137 -95h-127zM585 857l-162 125h186l106 -125h-130z" />
    <glyph glyph-name="uni1EA8" unicode="&#x1ea8;" horiz-adv-x="786" 
d="M-14 0l309 700h195l310 -700h-206l-242 603h78l-242 -603h-202zM155 136l51 146h342l51 -146h-444zM181 757l131 122h162l131 -122h-127l-137 95h104l-137 -95h-127zM589 837l-45 41q20 11 28 21.5t8 18.5q0 12 -9 19.5t-23 7.5q-21 0 -45 -12l-30 54q19 12 42.5 18
t48.5 6q45 0 72 -22.5t27 -60.5q0 -32 -21.5 -55.5t-52.5 -35.5z" />
    <glyph glyph-name="uni1EAA" unicode="&#x1eaa;" horiz-adv-x="786" 
d="M-14 0l309 700h195l310 -700h-206l-242 603h78l-242 -603h-202zM155 136l51 146h342l51 -146h-444zM181 757l131 122h162l131 -122h-127l-137 95h104l-137 -95h-127zM468 914q-35 0 -60 13t-44 25.5t-34 12.5q-19 0 -30 -12t-13 -31h-95q1 65 34.5 100.5t92.5 35.5
q35 0 60 -12.5t44 -25.5t35 -13q20 0 31.5 12.5t12.5 30.5h92q-1 -63 -33 -99.5t-93 -36.5z" />
    <glyph glyph-name="uni0200" unicode="&#x200;" horiz-adv-x="786" 
d="M-14 0l309 700h195l310 -700h-206l-242 603h78l-242 -603h-202zM155 136l51 146h342l51 -146h-444zM436 757l-101 152h170l63 -152h-132zM218 757l-100 152h170l62 -152h-132z" />
    <glyph glyph-name="Adieresis" unicode="&#xc4;" horiz-adv-x="786" 
d="M-14 0l309 700h195l310 -700h-206l-242 603h78l-242 -603h-202zM155 136l51 146h342l51 -146h-444zM499 756q-33 0 -56 21.5t-23 56.5t23 57t56 22t56 -22t23 -57t-23 -56.5t-56 -21.5zM287 756q-33 0 -56 21.5t-23 56.5t23 57t56 22t56 -22t23 -57t-23 -56.5t-56 -21.5z
" />
    <glyph glyph-name="uni1EA0" unicode="&#x1ea0;" horiz-adv-x="786" 
d="M-14 0l309 700h195l310 -700h-206l-242 603h78l-242 -603h-202zM155 136l51 146h342l51 -146h-444zM393 -218q-33 0 -56 21t-23 56t23 57t56 22t56 -22t23 -57t-23 -56t-56 -21z" />
    <glyph glyph-name="Agrave" unicode="&#xc0;" horiz-adv-x="786" 
d="M-14 0l309 700h195l310 -700h-206l-242 603h78l-242 -603h-202zM155 136l51 146h342l51 -146h-444zM355 757l-188 152h190l134 -152h-136z" />
    <glyph glyph-name="uni1EA2" unicode="&#x1ea2;" horiz-adv-x="786" 
d="M-14 0l309 700h195l310 -700h-206l-242 603h78l-242 -603h-202zM155 136l51 146h342l51 -146h-444zM429 747l-58 58q29 14 39 28.5t10 29.5q0 19 -12.5 29.5t-32.5 10.5q-29 0 -58 -20l-39 74q24 18 55 27.5t63 9.5q58 0 94.5 -32t36.5 -83q0 -46 -25 -78t-73 -54z" />
    <glyph glyph-name="uni0202" unicode="&#x202;" horiz-adv-x="786" 
d="M-14 0l309 700h195l310 -700h-206l-242 603h78l-242 -603h-202zM155 136l51 146h342l51 -146h-444zM197 757q3 75 57.5 118t138.5 43t138.5 -43t57.5 -118h-116q-1 30 -24 48t-56 18t-55.5 -18t-24.5 -48h-116z" />
    <glyph glyph-name="Amacron" unicode="&#x100;" horiz-adv-x="786" 
d="M-14 0l309 700h195l310 -700h-206l-242 603h78l-242 -603h-202zM155 136l51 146h342l51 -146h-444zM196 782v102h394v-102h-394z" />
    <glyph glyph-name="Aogonek" unicode="&#x104;" horiz-adv-x="786" 
d="M-14 0l309 700h195l310 -700h-206l-242 603h78l-242 -603h-202zM155 136l51 146h342l51 -146h-444zM717 -236q-70 0 -109 32.5t-39 84.5q0 35 18 65t53.5 55.5t88.5 43.5l70 -45q-42 -19 -67.5 -36t-36.5 -33t-11 -33q0 -19 14 -31.5t41 -12.5q17 0 33 4.5t27 10.5
l25 -82q-19 -10 -48 -16.5t-59 -6.5z" />
    <glyph glyph-name="Aring" unicode="&#xc5;" horiz-adv-x="786" 
d="M-14 0l309 700h195l310 -700h-206l-242 603h78l-242 -603h-202zM155 136l51 146h342l51 -146h-444zM393 749q-37 0 -67 17t-47.5 46t-17.5 64q0 36 17.5 64.5t47.5 46t67 17.5q38 0 67.5 -17.5t47 -46t17.5 -64.5q0 -35 -17.5 -64t-47.5 -46t-67 -17zM393 819q25 0 41 16
t16 41t-16.5 41.5t-40.5 16.5t-40.5 -16t-16.5 -42q0 -25 16.5 -41t40.5 -16z" />
    <glyph glyph-name="Aringacute" unicode="&#x1fa;" horiz-adv-x="786" 
d="M-14 0l309 700h195l310 -700h-206l-242 603h78l-242 -603h-202zM155 136l51 146h342l51 -146h-444zM393 749q-37 0 -67 17t-47.5 46t-17.5 64q0 36 17.5 64.5t47.5 46t67 17.5q38 0 67.5 -17.5t47 -46t17.5 -64.5q0 -35 -17.5 -64t-47.5 -46t-67 -17zM393 819q25 0 41 16
t16 41t-16.5 41.5t-40.5 16.5t-40.5 -16t-16.5 -42q0 -25 16.5 -41t40.5 -16zM491 927l-88 28l128 133l93 -70z" />
    <glyph glyph-name="Atilde" unicode="&#xc3;" horiz-adv-x="786" 
d="M-14 0l309 700h195l310 -700h-206l-242 603h78l-242 -603h-202zM155 136l51 146h342l51 -146h-444zM471 750q-27 0 -47.5 9.5t-37.5 21.5t-31 21.5t-28 9.5q-20 0 -32 -14t-14 -39h-93q2 73 35.5 116t91.5 43q27 0 48 -9t37.5 -21.5t31 -21.5t27.5 -9q20 0 32.5 13.5
t13.5 36.5h93q-1 -70 -35 -113.5t-92 -43.5z" />
    <glyph glyph-name="AE" unicode="&#xc6;" horiz-adv-x="1099" 
d="M-14 0l382 700h197v-153h-168l119 80l-328 -627h-202zM208 136l1 146h356v-146h-357zM679 429h325v-148h-325v148zM693 153h366v-153h-562v700h549v-153h-353v-394z" />
    <glyph glyph-name="AEacute" unicode="&#x1fc;" horiz-adv-x="1099" 
d="M-14 0l382 700h197v-153h-168l119 80l-328 -627h-202zM208 136l1 146h356v-146h-357zM679 429h325v-148h-325v148zM693 153h366v-153h-562v700h549v-153h-353v-394zM497 757l134 152h190l-188 -152h-136z" />
    <glyph glyph-name="B" unicode="B" horiz-adv-x="769" 
d="M70 0v700h358q138 0 206 -50.5t68 -132.5q0 -54 -28.5 -94.5t-80 -64t-122.5 -23.5l20 48q74 0 129 -22.5t85.5 -65t30.5 -103.5q0 -91 -73.5 -141.5t-214.5 -50.5h-378zM266 143h166q51 0 77.5 17.5t26.5 53.5t-26.5 53.5t-77.5 17.5h-180v137h150q50 0 75 17t25 51
t-25 50.5t-75 16.5h-136v-414z" />
    <glyph glyph-name="C" unicode="C" horiz-adv-x="738" 
d="M419 -14q-83 0 -153.5 26.5t-122 75.5t-80.5 115.5t-29 146.5t29 146.5t80.5 115.5t122 75.5t153.5 26.5q97 0 173.5 -34t127.5 -98l-126 -114q-34 40 -74.5 61t-90.5 21q-43 0 -79 -14t-61.5 -40.5t-40 -63.5t-14.5 -82t14.5 -82t40 -63.5t61.5 -40.5t79 -14
q50 0 90.5 21t74.5 61l126 -114q-51 -63 -127.5 -97.5t-173.5 -34.5z" />
    <glyph glyph-name="Cacute" unicode="&#x106;" horiz-adv-x="738" 
d="M419 -14q-83 0 -153.5 26.5t-122 75.5t-80.5 115.5t-29 146.5t29 146.5t80.5 115.5t122 75.5t153.5 26.5q97 0 173.5 -34t127.5 -98l-126 -114q-34 40 -74.5 61t-90.5 21q-43 0 -79 -14t-61.5 -40.5t-40 -63.5t-14.5 -82t14.5 -82t40 -63.5t61.5 -40.5t79 -14
q50 0 90.5 21t74.5 61l126 -114q-51 -63 -127.5 -97.5t-173.5 -34.5zM318 758l134 152h190l-188 -152h-136z" />
    <glyph glyph-name="Ccaron" unicode="&#x10c;" horiz-adv-x="738" 
d="M419 -14q-83 0 -153.5 26.5t-122 75.5t-80.5 115.5t-29 146.5t29 146.5t80.5 115.5t122 75.5t153.5 26.5q97 0 173.5 -34t127.5 -98l-126 -114q-34 40 -74.5 61t-90.5 21q-43 0 -79 -14t-61.5 -40.5t-40 -63.5t-14.5 -82t14.5 -82t40 -63.5t61.5 -40.5t79 -14
q50 0 90.5 21t74.5 61l126 -114q-51 -63 -127.5 -97.5t-173.5 -34.5zM334 758l-130 152h126l141 -124h-110l141 124h126l-130 -152h-164z" />
    <glyph glyph-name="Ccedilla" unicode="&#xc7;" horiz-adv-x="738" 
d="M419 -14q-83 0 -153.5 26.5t-122 75.5t-80.5 115.5t-29 146.5t29 146.5t80.5 115.5t122 75.5t153.5 26.5q97 0 173.5 -34t127.5 -98l-126 -114q-34 40 -74.5 61t-90.5 21q-43 0 -79 -14t-61.5 -40.5t-40 -63.5t-14.5 -82t14.5 -82t40 -63.5t61.5 -40.5t79 -14
q50 0 90.5 21t74.5 61l126 -114q-51 -63 -127.5 -97.5t-173.5 -34.5zM358 -236q-25 0 -51.5 6t-43.5 15l26 75q13 -6 28.5 -10t33.5 -4q27 0 38.5 8t11.5 20t-10.5 18.5t-34.5 6.5h-37l26 110h99l-14 -60q46 -5 66 -29t20 -52q0 -48 -43 -76t-115 -28z" />
    <glyph glyph-name="uni1E08" unicode="&#x1e08;" horiz-adv-x="738" 
d="M419 -14q-83 0 -153.5 26.5t-122 75.5t-80.5 115.5t-29 146.5t29 146.5t80.5 115.5t122 75.5t153.5 26.5q97 0 173.5 -34t127.5 -98l-126 -114q-34 40 -74.5 61t-90.5 21q-43 0 -79 -14t-61.5 -40.5t-40 -63.5t-14.5 -82t14.5 -82t40 -63.5t61.5 -40.5t79 -14
q50 0 90.5 21t74.5 61l126 -114q-51 -63 -127.5 -97.5t-173.5 -34.5zM358 -236q-25 0 -51.5 6t-43.5 15l26 75q13 -6 28.5 -10t33.5 -4q27 0 38.5 8t11.5 20t-10.5 18.5t-34.5 6.5h-37l26 110h99l-14 -60q46 -5 66 -29t20 -52q0 -48 -43 -76t-115 -28zM318 758l134 152h190
l-188 -152h-136z" />
    <glyph glyph-name="Ccircumflex" unicode="&#x108;" horiz-adv-x="738" 
d="M419 -14q-83 0 -153.5 26.5t-122 75.5t-80.5 115.5t-29 146.5t29 146.5t80.5 115.5t122 75.5t153.5 26.5q97 0 173.5 -34t127.5 -98l-126 -114q-34 40 -74.5 61t-90.5 21q-43 0 -79 -14t-61.5 -40.5t-40 -63.5t-14.5 -82t14.5 -82t40 -63.5t61.5 -40.5t79 -14
q50 0 90.5 21t74.5 61l126 -114q-51 -63 -127.5 -97.5t-173.5 -34.5zM204 758l130 152h164l130 -152h-126l-141 125h110l-141 -125h-126z" />
    <glyph glyph-name="Cdotaccent" unicode="&#x10a;" horiz-adv-x="738" 
d="M419 -14q-83 0 -153.5 26.5t-122 75.5t-80.5 115.5t-29 146.5t29 146.5t80.5 115.5t122 75.5t153.5 26.5q97 0 173.5 -34t127.5 -98l-126 -114q-34 40 -74.5 61t-90.5 21q-43 0 -79 -14t-61.5 -40.5t-40 -63.5t-14.5 -82t14.5 -82t40 -63.5t61.5 -40.5t79 -14
q50 0 90.5 21t74.5 61l126 -114q-51 -63 -127.5 -97.5t-173.5 -34.5zM416 756q-43 0 -71 27.5t-28 71.5q0 43 28 70.5t71 27.5t71 -27.5t28 -70.5q0 -44 -28 -71.5t-71 -27.5z" />
    <glyph glyph-name="D" unicode="D" horiz-adv-x="826" 
d="M70 0v700h331q116 0 204 -43t137.5 -121t49.5 -186q0 -107 -49.5 -185.5t-137.5 -121.5t-204 -43h-331zM268 158h125q60 0 104.5 22.5t69.5 66t25 103.5q0 61 -25 104t-69.5 65.5t-104.5 22.5h-125v-384z" />
    <glyph glyph-name="uni01C4" unicode="&#x1c4;" horiz-adv-x="1445" 
d="M70 0v700h331q116 0 204 -43t137.5 -121t49.5 -186q0 -107 -49.5 -185.5t-137.5 -121.5t-204 -43h-331zM268 158h125q60 0 104.5 22.5t69.5 66t25 103.5q0 61 -25 104t-69.5 65.5t-104.5 22.5h-125v-384zM803 0v124l412 489l24 -70h-427v157h603v-124l-412 -489l-24 70
h451v-157h-627zM1035 757l-130 152h126l141 -124h-110l141 124h126l-130 -152h-164z" />
    <glyph glyph-name="Eth" unicode="&#xd0;" horiz-adv-x="843" 
d="M87 0v700h331q116 0 204 -43t137.5 -121t49.5 -186q0 -107 -49.5 -185.5t-137.5 -121.5t-204 -43h-331zM285 158h125q60 0 104.5 22.5t69.5 66t25 103.5q0 61 -25 104t-69.5 65.5t-104.5 22.5h-125v-384zM-3 294v122h450v-122h-450z" />
    <glyph glyph-name="Dcaron" unicode="&#x10e;" horiz-adv-x="826" 
d="M70 0v700h331q116 0 204 -43t137.5 -121t49.5 -186q0 -107 -49.5 -185.5t-137.5 -121.5t-204 -43h-331zM268 158h125q60 0 104.5 22.5t69.5 66t25 103.5q0 61 -25 104t-69.5 65.5t-104.5 22.5h-125v-384zM283 757l-130 152h126l141 -124h-110l141 124h126l-130 -152h-164
z" />
    <glyph glyph-name="Dcroat" unicode="&#x110;" horiz-adv-x="843" 
d="M87 0v700h331q116 0 204 -43t137.5 -121t49.5 -186q0 -107 -49.5 -185.5t-137.5 -121.5t-204 -43h-331zM285 158h125q60 0 104.5 22.5t69.5 66t25 103.5q0 61 -25 104t-69.5 65.5t-104.5 22.5h-125v-384zM-3 294v122h450v-122h-450z" />
    <glyph glyph-name="uni1E0C" unicode="&#x1e0c;" horiz-adv-x="826" 
d="M70 0v700h331q116 0 204 -43t137.5 -121t49.5 -186q0 -107 -49.5 -185.5t-137.5 -121.5t-204 -43h-331zM268 158h125q60 0 104.5 22.5t69.5 66t25 103.5q0 61 -25 104t-69.5 65.5t-104.5 22.5h-125v-384zM367 -218q-33 0 -56 21t-23 56t23 57t56 22t56 -22t23 -57
t-23 -56t-56 -21z" />
    <glyph glyph-name="uni1E0E" unicode="&#x1e0e;" horiz-adv-x="826" 
d="M70 0v700h331q116 0 204 -43t137.5 -121t49.5 -186q0 -107 -49.5 -185.5t-137.5 -121.5t-204 -43h-331zM268 158h125q60 0 104.5 22.5t69.5 66t25 103.5q0 61 -25 104t-69.5 65.5t-104.5 22.5h-125v-384zM170 -187v102h394v-102h-394z" />
    <glyph glyph-name="uni01C5" unicode="&#x1c5;" horiz-adv-x="1382" 
d="M70 0v700h331q116 0 204 -43t137.5 -121t49.5 -186q0 -107 -49.5 -185.5t-137.5 -121.5t-204 -43h-331zM268 158h125q60 0 104.5 22.5t69.5 66t25 103.5q0 61 -25 104t-69.5 65.5t-104.5 22.5h-125v-384zM859 0v112l304 350l32 -61h-329v141h483v-111l-305 -351l-32 62
h347v-142h-500zM1026 607l-130 152h126l141 -124h-110l141 124h126l-130 -152h-164z" />
    <glyph glyph-name="E" unicode="E" horiz-adv-x="672" 
d="M252 429h325v-148h-325v148zM266 153h366v-153h-562v700h549v-153h-353v-394z" />
    <glyph glyph-name="Eacute" unicode="&#xc9;" horiz-adv-x="672" 
d="M252 429h325v-148h-325v148zM266 153h366v-153h-562v700h549v-153h-353v-394zM247 757l134 152h190l-188 -152h-136z" />
    <glyph glyph-name="Ebreve" unicode="&#x114;" horiz-adv-x="672" 
d="M252 429h325v-148h-325v148zM266 153h366v-153h-562v700h549v-153h-353v-394zM345 748q-84 0 -138.5 43t-57.5 118h116q2 -31 24.5 -48.5t55.5 -17.5t56 17.5t24 48.5h116q-3 -75 -57.5 -118t-138.5 -43z" />
    <glyph glyph-name="Ecaron" unicode="&#x11a;" horiz-adv-x="672" 
d="M252 429h325v-148h-325v148zM266 153h366v-153h-562v700h549v-153h-353v-394zM263 757l-130 152h126l141 -124h-110l141 124h126l-130 -152h-164z" />
    <glyph glyph-name="uni1E1C" unicode="&#x1e1c;" horiz-adv-x="672" 
d="M252 429h325v-148h-325v148zM266 153h366v-153h-562v700h549v-153h-353v-394zM311 -236q-25 0 -51.5 6t-43.5 15l26 75q13 -6 28.5 -10t33.5 -4q27 0 38.5 8t11.5 20t-10.5 18.5t-34.5 6.5h-37l26 110h99l-14 -60q46 -5 66 -29t20 -52q0 -48 -43 -76t-115 -28zM345 748
q-84 0 -138.5 43t-57.5 118h116q2 -31 24.5 -48.5t55.5 -17.5t56 17.5t24 48.5h116q-3 -75 -57.5 -118t-138.5 -43z" />
    <glyph glyph-name="Ecircumflex" unicode="&#xca;" horiz-adv-x="672" 
d="M252 429h325v-148h-325v148zM266 153h366v-153h-562v700h549v-153h-353v-394zM133 757l130 152h164l130 -152h-126l-141 125h110l-141 -125h-126z" />
    <glyph glyph-name="uni1EBE" unicode="&#x1ebe;" horiz-adv-x="672" 
d="M252 429h325v-148h-325v148zM266 153h366v-153h-562v700h549v-153h-353v-394zM133 757l131 122h162l131 -122h-127l-137 95h104l-137 -95h-127zM477 857l106 125h186l-161 -125h-131z" />
    <glyph glyph-name="uni1EC6" unicode="&#x1ec6;" horiz-adv-x="672" 
d="M252 429h325v-148h-325v148zM266 153h366v-153h-562v700h549v-153h-353v-394zM348 -218q-33 0 -56 21t-23 56t23 57t56 22t56 -22t23 -57t-23 -56t-56 -21zM133 757l130 152h164l130 -152h-126l-141 125h110l-141 -125h-126z" />
    <glyph glyph-name="uni1EC0" unicode="&#x1ec0;" horiz-adv-x="672" 
d="M252 429h325v-148h-325v148zM266 153h366v-153h-562v700h549v-153h-353v-394zM133 757l131 122h162l131 -122h-127l-137 95h104l-137 -95h-127zM537 857l-162 125h186l106 -125h-130z" />
    <glyph glyph-name="uni1EC2" unicode="&#x1ec2;" horiz-adv-x="672" 
d="M252 429h325v-148h-325v148zM266 153h366v-153h-562v700h549v-153h-353v-394zM133 757l131 122h162l131 -122h-127l-137 95h104l-137 -95h-127zM541 837l-45 41q20 11 28 21.5t8 18.5q0 12 -9 19.5t-23 7.5q-21 0 -45 -12l-30 54q19 12 42.5 18t48.5 6q45 0 72 -22.5
t27 -60.5q0 -32 -21.5 -55.5t-52.5 -35.5z" />
    <glyph glyph-name="uni1EC4" unicode="&#x1ec4;" horiz-adv-x="672" 
d="M252 429h325v-148h-325v148zM266 153h366v-153h-562v700h549v-153h-353v-394zM133 757l131 122h162l131 -122h-127l-137 95h104l-137 -95h-127zM420 914q-35 0 -60 13t-44 25.5t-34 12.5q-19 0 -30 -12t-13 -31h-95q1 65 34.5 100.5t92.5 35.5q35 0 60 -12.5t44 -25.5
t35 -13q20 0 31.5 12.5t12.5 30.5h92q-1 -63 -33 -99.5t-93 -36.5z" />
    <glyph glyph-name="uni0204" unicode="&#x204;" horiz-adv-x="672" 
d="M252 429h325v-148h-325v148zM266 153h366v-153h-562v700h549v-153h-353v-394zM388 757l-101 152h170l63 -152h-132zM170 757l-100 152h170l62 -152h-132z" />
    <glyph glyph-name="Edieresis" unicode="&#xcb;" horiz-adv-x="672" 
d="M252 429h325v-148h-325v148zM266 153h366v-153h-562v700h549v-153h-353v-394zM451 756q-33 0 -56 21.5t-23 56.5t23 57t56 22t56 -22t23 -57t-23 -56.5t-56 -21.5zM239 756q-33 0 -56 21.5t-23 56.5t23 57t56 22t56 -22t23 -57t-23 -56.5t-56 -21.5z" />
    <glyph glyph-name="Edotaccent" unicode="&#x116;" horiz-adv-x="672" 
d="M252 429h325v-148h-325v148zM266 153h366v-153h-562v700h549v-153h-353v-394zM345 755q-43 0 -71 27.5t-28 71.5q0 43 28 70.5t71 27.5t71 -27.5t28 -70.5q0 -44 -28 -71.5t-71 -27.5z" />
    <glyph glyph-name="uni1EB8" unicode="&#x1eb8;" horiz-adv-x="672" 
d="M252 429h325v-148h-325v148zM266 153h366v-153h-562v700h549v-153h-353v-394zM348 -218q-33 0 -56 21t-23 56t23 57t56 22t56 -22t23 -57t-23 -56t-56 -21z" />
    <glyph glyph-name="Egrave" unicode="&#xc8;" horiz-adv-x="672" 
d="M252 429h325v-148h-325v148zM266 153h366v-153h-562v700h549v-153h-353v-394zM307 757l-188 152h190l134 -152h-136z" />
    <glyph glyph-name="uni1EBA" unicode="&#x1eba;" horiz-adv-x="672" 
d="M252 429h325v-148h-325v148zM266 153h366v-153h-562v700h549v-153h-353v-394zM381 747l-58 58q29 14 39 28.5t10 29.5q0 19 -12.5 29.5t-32.5 10.5q-29 0 -58 -20l-39 74q24 18 55 27.5t63 9.5q58 0 94.5 -32t36.5 -83q0 -46 -25 -78t-73 -54z" />
    <glyph glyph-name="uni0206" unicode="&#x206;" horiz-adv-x="672" 
d="M252 429h325v-148h-325v148zM266 153h366v-153h-562v700h549v-153h-353v-394zM149 757q3 75 57.5 118t138.5 43t138.5 -43t57.5 -118h-116q-1 30 -24 48t-56 18t-55.5 -18t-24.5 -48h-116z" />
    <glyph glyph-name="Emacron" unicode="&#x112;" horiz-adv-x="672" 
d="M252 429h325v-148h-325v148zM266 153h366v-153h-562v700h549v-153h-353v-394zM148 782v102h394v-102h-394z" />
    <glyph glyph-name="uni1E16" unicode="&#x1e16;" horiz-adv-x="672" 
d="M252 429h325v-148h-325v148zM266 153h366v-153h-562v700h549v-153h-353v-394zM148 769v98h394v-98h-394zM250 929l106 125h186l-161 -125h-131z" />
    <glyph glyph-name="uni1E14" unicode="&#x1e14;" horiz-adv-x="672" 
d="M252 429h325v-148h-325v148zM266 153h366v-153h-562v700h549v-153h-353v-394zM148 769v98h394v-98h-394zM310 929l-162 125h186l106 -125h-130z" />
    <glyph glyph-name="Eogonek" unicode="&#x118;" horiz-adv-x="672" 
d="M252 429h325v-148h-325v148zM266 153h366v-153h-562v700h549v-153h-353v-394zM550 -236q-70 0 -109 32.5t-39 84.5q0 35 18 65t53.5 55.5t88.5 43.5l70 -45q-42 -19 -67.5 -36t-36.5 -33t-11 -33q0 -19 14 -31.5t41 -12.5q17 0 33 4.5t27 10.5l25 -82q-19 -10 -48 -16.5
t-59 -6.5z" />
    <glyph glyph-name="uni1EBC" unicode="&#x1ebc;" horiz-adv-x="672" 
d="M252 429h325v-148h-325v148zM266 153h366v-153h-562v700h549v-153h-353v-394zM423 750q-27 0 -47.5 9.5t-37.5 21.5t-31 21.5t-28 9.5q-20 0 -32 -14t-14 -39h-93q2 73 35.5 116t91.5 43q27 0 48 -9t37.5 -21.5t31 -21.5t27.5 -9q20 0 32.5 13.5t13.5 36.5h93
q-1 -70 -35 -113.5t-92 -43.5z" />
    <glyph glyph-name="uni01B7" unicode="&#x1b7;" horiz-adv-x="646" 
d="M300 -14q-75 0 -150.5 18t-128.5 51l65 148q44 -28 99.5 -43t107.5 -15q56 0 89.5 19t33.5 55q0 32 -28 50t-90 18h-84v125l200 203l18 -68h-380v153h526v-124l-200 -203l-94 54h54q92 0 153.5 -26.5t93 -73.5t31.5 -107q0 -61 -33 -114t-103 -86.5t-180 -33.5z" />
    <glyph glyph-name="uni01EE" unicode="&#x1ee;" horiz-adv-x="646" 
d="M300 -14q-75 0 -150.5 18t-128.5 51l65 148q44 -28 99.5 -43t107.5 -15q56 0 89.5 19t33.5 55q0 32 -28 50t-90 18h-84v125l200 203l18 -68h-380v153h526v-124l-200 -203l-94 54h54q92 0 153.5 -26.5t93 -73.5t31.5 -107q0 -61 -33 -114t-103 -86.5t-180 -33.5zM231 757
l-130 152h126l141 -124h-110l141 124h126l-130 -152h-164z" />
    <glyph glyph-name="F" unicode="F" horiz-adv-x="642" 
d="M254 393h323v-153h-323v153zM268 0h-198v700h549v-153h-351v-547z" />
    <glyph glyph-name="G" unicode="G" horiz-adv-x="770" 
d="M420 -14q-83 0 -154 26.5t-122.5 75.5t-80.5 115.5t-29 146.5t29 146.5t81 115.5t123.5 75.5t156.5 26.5q99 0 177 -33t129 -95l-126 -114q-36 39 -77.5 58.5t-92.5 19.5q-45 0 -82 -14t-63 -40.5t-40.5 -63t-14.5 -82.5q0 -44 14.5 -81t40.5 -63.5t62.5 -41t80.5 -14.5
t86 14.5t85 49.5l111 -139q-60 -43 -139 -66t-155 -23zM539 101v264h175v-290z" />
    <glyph glyph-name="Gbreve" unicode="&#x11e;" horiz-adv-x="770" 
d="M420 -14q-83 0 -154 26.5t-122.5 75.5t-80.5 115.5t-29 146.5t29 146.5t81 115.5t123.5 75.5t156.5 26.5q99 0 177 -33t129 -95l-126 -114q-36 39 -77.5 58.5t-92.5 19.5q-45 0 -82 -14t-63 -40.5t-40.5 -63t-14.5 -82.5q0 -44 14.5 -81t40.5 -63.5t62.5 -41t80.5 -14.5
t86 14.5t85 49.5l111 -139q-60 -43 -139 -66t-155 -23zM539 101v264h175v-290zM420 749q-84 0 -138.5 43t-57.5 118h116q2 -31 24.5 -48.5t55.5 -17.5t56 17.5t24 48.5h116q-3 -75 -57.5 -118t-138.5 -43z" />
    <glyph glyph-name="Gcaron" unicode="&#x1e6;" horiz-adv-x="770" 
d="M420 -14q-83 0 -154 26.5t-122.5 75.5t-80.5 115.5t-29 146.5t29 146.5t81 115.5t123.5 75.5t156.5 26.5q99 0 177 -33t129 -95l-126 -114q-36 39 -77.5 58.5t-92.5 19.5q-45 0 -82 -14t-63 -40.5t-40.5 -63t-14.5 -82.5q0 -44 14.5 -81t40.5 -63.5t62.5 -41t80.5 -14.5
t86 14.5t85 49.5l111 -139q-60 -43 -139 -66t-155 -23zM539 101v264h175v-290zM338 758l-130 152h126l141 -124h-110l141 124h126l-130 -152h-164z" />
    <glyph glyph-name="Gcircumflex" unicode="&#x11c;" horiz-adv-x="770" 
d="M420 -14q-83 0 -154 26.5t-122.5 75.5t-80.5 115.5t-29 146.5t29 146.5t81 115.5t123.5 75.5t156.5 26.5q99 0 177 -33t129 -95l-126 -114q-36 39 -77.5 58.5t-92.5 19.5q-45 0 -82 -14t-63 -40.5t-40.5 -63t-14.5 -82.5q0 -44 14.5 -81t40.5 -63.5t62.5 -41t80.5 -14.5
t86 14.5t85 49.5l111 -139q-60 -43 -139 -66t-155 -23zM539 101v264h175v-290zM208 758l130 152h164l130 -152h-126l-141 125h110l-141 -125h-126z" />
    <glyph glyph-name="uni0122" unicode="&#x122;" horiz-adv-x="770" 
d="M420 -14q-83 0 -154 26.5t-122.5 75.5t-80.5 115.5t-29 146.5t29 146.5t81 115.5t123.5 75.5t156.5 26.5q99 0 177 -33t129 -95l-126 -114q-36 39 -77.5 58.5t-92.5 19.5q-45 0 -82 -14t-63 -40.5t-40.5 -63t-14.5 -82.5q0 -44 14.5 -81t40.5 -63.5t62.5 -41t80.5 -14.5
t86 14.5t85 49.5l111 -139q-60 -43 -139 -66t-155 -23zM539 101v264h175v-290zM343 -268l44 136l21 -63q-39 0 -59 18t-20 48t21 48.5t58 18.5t58 -18.5t21 -48.5q0 -13 -4 -30.5t-17 -41.5l-37 -67h-86z" />
    <glyph glyph-name="Gdotaccent" unicode="&#x120;" horiz-adv-x="770" 
d="M420 -14q-83 0 -154 26.5t-122.5 75.5t-80.5 115.5t-29 146.5t29 146.5t81 115.5t123.5 75.5t156.5 26.5q99 0 177 -33t129 -95l-126 -114q-36 39 -77.5 58.5t-92.5 19.5q-45 0 -82 -14t-63 -40.5t-40.5 -63t-14.5 -82.5q0 -44 14.5 -81t40.5 -63.5t62.5 -41t80.5 -14.5
t86 14.5t85 49.5l111 -139q-60 -43 -139 -66t-155 -23zM539 101v264h175v-290zM420 756q-43 0 -71 27.5t-28 71.5q0 43 28 70.5t71 27.5t71 -27.5t28 -70.5q0 -44 -28 -71.5t-71 -27.5z" />
    <glyph glyph-name="uni1E20" unicode="&#x1e20;" horiz-adv-x="770" 
d="M420 -14q-83 0 -154 26.5t-122.5 75.5t-80.5 115.5t-29 146.5t29 146.5t81 115.5t123.5 75.5t156.5 26.5q99 0 177 -33t129 -95l-126 -114q-36 39 -77.5 58.5t-92.5 19.5q-45 0 -82 -14t-63 -40.5t-40.5 -63t-14.5 -82.5q0 -44 14.5 -81t40.5 -63.5t62.5 -41t80.5 -14.5
t86 14.5t85 49.5l111 -139q-60 -43 -139 -66t-155 -23zM539 101v264h175v-290zM223 783v102h394v-102h-394z" />
    <glyph glyph-name="uni01E4" unicode="&#x1e4;" horiz-adv-x="814" 
d="M391 201v121h406v-121h-406zM420 -14q-83 0 -154 26.5t-122.5 75.5t-80.5 115.5t-29 146.5t29 146.5t81 115.5t123.5 75.5t156.5 26.5q99 0 177 -33t129 -95l-126 -114q-36 39 -77.5 58.5t-92.5 19.5q-45 0 -82 -14t-63 -40.5t-40.5 -63t-14.5 -82.5q0 -44 14.5 -81
t40.5 -63.5t62.5 -41t80.5 -14.5t86 14.5t85 49.5l111 -139q-60 -43 -139 -66t-155 -23zM539 101v264h175v-290z" />
    <glyph glyph-name="H" unicode="H" horiz-adv-x="806" 
d="M538 700h198v-700h-198v700zM268 0h-198v700h198v-700zM552 273h-298v164h298v-164z" />
    <glyph glyph-name="Hbar" unicode="&#x126;" horiz-adv-x="839" 
d="M555 700h198v-700h-198v700zM285 0h-198v700h198v-700zM569 273h-298v164h298v-164zM-4 509v121h847v-121h-847z" />
    <glyph glyph-name="uni1E2A" unicode="&#x1e2a;" horiz-adv-x="806" 
d="M538 700h198v-700h-198v700zM268 0h-198v700h198v-700zM552 273h-298v164h298v-164zM403 -221q-84 0 -138 41.5t-58 108.5h109q2 -28 26.5 -45t60.5 -17q37 0 61 17t26 45h109q-3 -67 -57.5 -108.5t-138.5 -41.5z" />
    <glyph glyph-name="uni021E" unicode="&#x21e;" horiz-adv-x="806" 
d="M538 700h198v-700h-198v700zM268 0h-198v700h198v-700zM552 273h-298v164h298v-164zM321 757l-130 152h126l141 -124h-110l141 124h126l-130 -152h-164z" />
    <glyph glyph-name="Hcircumflex" unicode="&#x124;" horiz-adv-x="806" 
d="M538 700h198v-700h-198v700zM268 0h-198v700h198v-700zM552 273h-298v164h298v-164zM191 757l130 152h164l130 -152h-126l-141 125h110l-141 -125h-126z" />
    <glyph glyph-name="uni1E24" unicode="&#x1e24;" horiz-adv-x="806" 
d="M538 700h198v-700h-198v700zM268 0h-198v700h198v-700zM552 273h-298v164h298v-164zM403 -218q-33 0 -56 21t-23 56t23 57t56 22t56 -22t23 -57t-23 -56t-56 -21z" />
    <glyph glyph-name="I" unicode="I" horiz-adv-x="339" 
d="M70 0v700h198v-700h-198z" />
    <glyph glyph-name="IJ" unicode="&#x132;" horiz-adv-x="727" 
d="M328 -14q-85 0 -157 22t-124 59l72 144q49 -31 101.5 -47.5t100.5 -16.5q72 0 107.5 39.5t35.5 122.5v391h198v-380q0 -108 -41.5 -182.5t-117 -113t-175.5 -38.5zM64 329v371h198v-371h-198z" />
    <glyph glyph-name="Iacute" unicode="&#xcd;" horiz-adv-x="339" 
d="M70 0v700h198v-700h-198zM71 757l134 152h190l-188 -152h-136z" />
    <glyph glyph-name="Ibreve" unicode="&#x12c;" horiz-adv-x="339" 
d="M70 0v700h198v-700h-198zM169 748q-84 0 -138.5 43t-57.5 118h116q2 -31 24.5 -48.5t55.5 -17.5t56 17.5t24 48.5h116q-3 -75 -57.5 -118t-138.5 -43z" />
    <glyph glyph-name="Icircumflex" unicode="&#xce;" horiz-adv-x="339" 
d="M70 0v700h198v-700h-198zM-43 757l130 152h164l130 -152h-126l-141 125h110l-141 -125h-126z" />
    <glyph glyph-name="uni0208" unicode="&#x208;" horiz-adv-x="339" 
d="M70 0v700h198v-700h-198zM212 757l-101 152h170l63 -152h-132zM-6 757l-100 152h170l62 -152h-132z" />
    <glyph glyph-name="Idieresis" unicode="&#xcf;" horiz-adv-x="339" 
d="M70 0v700h198v-700h-198zM275 756q-33 0 -56 21.5t-23 56.5t23 57t56 22t56 -22t23 -57t-23 -56.5t-56 -21.5zM63 756q-33 0 -56 21.5t-23 56.5t23 57t56 22t56 -22t23 -57t-23 -56.5t-56 -21.5z" />
    <glyph glyph-name="uni1E2E" unicode="&#x1e2e;" horiz-adv-x="339" 
d="M70 0v700h198v-700h-198zM271 755q-32 0 -53.5 20.5t-21.5 53.5t21.5 54t53.5 21t53.5 -21t21.5 -54t-21.5 -53.5t-53.5 -20.5zM67 755q-31 0 -53 20.5t-22 53.5t22 54t53 21q32 0 54 -21t22 -54t-22 -53.5t-54 -20.5zM74 928l106 125h186l-161 -125h-131z" />
    <glyph glyph-name="Idotaccent" unicode="&#x130;" horiz-adv-x="339" 
d="M70 0v700h198v-700h-198zM169 755q-43 0 -71 27.5t-28 71.5q0 43 28 70.5t71 27.5t71 -27.5t28 -70.5q0 -44 -28 -71.5t-71 -27.5z" />
    <glyph glyph-name="uni1ECA" unicode="&#x1eca;" horiz-adv-x="339" 
d="M70 0v700h198v-700h-198zM169 -218q-33 0 -56 21t-23 56t23 57t56 22t56 -22t23 -57t-23 -56t-56 -21z" />
    <glyph glyph-name="Igrave" unicode="&#xcc;" horiz-adv-x="339" 
d="M70 0v700h198v-700h-198zM131 757l-188 152h190l134 -152h-136z" />
    <glyph glyph-name="uni1EC8" unicode="&#x1ec8;" horiz-adv-x="339" 
d="M70 0v700h198v-700h-198zM205 747l-58 58q29 14 39 28.5t10 29.5q0 19 -12.5 29.5t-32.5 10.5q-29 0 -58 -20l-39 74q24 18 55 27.5t63 9.5q58 0 94.5 -32t36.5 -83q0 -46 -25 -78t-73 -54z" />
    <glyph glyph-name="uni020A" unicode="&#x20a;" horiz-adv-x="339" 
d="M70 0v700h198v-700h-198zM-27 757q3 75 57.5 118t138.5 43t138.5 -43t57.5 -118h-116q-1 30 -24 48t-56 18t-55.5 -18t-24.5 -48h-116z" />
    <glyph glyph-name="Imacron" unicode="&#x12a;" horiz-adv-x="339" 
d="M70 0v700h198v-700h-198zM9 781v102h320v-102h-320z" />
    <glyph glyph-name="Iogonek" unicode="&#x12e;" horiz-adv-x="339" 
d="M70 0v700h198v-700h-198zM217 -236q-59 0 -95.5 32t-36.5 86q0 51 33.5 93.5t96.5 70.5l53 -46q-39 -28 -53 -52t-14 -49q0 -20 11.5 -32.5t28.5 -12.5q8 0 16.5 3t15.5 8l23 -79q-31 -22 -79 -22z" />
    <glyph glyph-name="Itilde" unicode="&#x128;" horiz-adv-x="339" 
d="M70 0v700h198v-700h-198zM247 750q-27 0 -47.5 9.5t-37.5 21.5t-31 21.5t-28 9.5q-20 0 -32 -14t-14 -39h-93q2 73 35.5 116t91.5 43q27 0 48 -9t37.5 -21.5t31 -21.5t27.5 -9q20 0 32.5 13.5t13.5 36.5h93q-1 -70 -35 -113.5t-92 -43.5z" />
    <glyph glyph-name="J" unicode="J" horiz-adv-x="557" 
d="M223 -14q-77 0 -139.5 26.5t-103.5 76.5l108 128q28 -36 58 -54.5t63 -18.5q88 0 88 102v301h-242v153h438v-442q0 -137 -69 -204.5t-201 -67.5z" />
    <glyph glyph-name="Jcircumflex" unicode="&#x134;" horiz-adv-x="557" 
d="M223 -14q-77 0 -139.5 26.5t-103.5 76.5l108 128q28 -36 58 -54.5t63 -18.5q88 0 88 102v301h-242v153h438v-442q0 -137 -69 -204.5t-201 -67.5zM62 757l130 152h164l130 -152h-126l-141 125h110l-141 -125h-126z" />
    <glyph glyph-name="K" unicode="K" horiz-adv-x="752" 
d="M247 155l-11 222l301 323h218l-300 -325l-110 -115zM70 0v700h196v-700h-196zM540 0l-228 289l129 138l329 -427h-230z" />
    <glyph glyph-name="uni01E8" unicode="&#x1e8;" horiz-adv-x="752" 
d="M247 155l-11 222l301 323h218l-300 -325l-110 -115zM70 0v700h196v-700h-196zM540 0l-228 289l129 138l329 -427h-230zM300 757l-130 152h126l141 -124h-110l141 124h126l-130 -152h-164z" />
    <glyph glyph-name="uni0136" unicode="&#x136;" horiz-adv-x="752" 
d="M247 155l-11 222l301 323h218l-300 -325l-110 -115zM70 0v700h196v-700h-196zM540 0l-228 289l129 138l329 -427h-230zM317 -268l44 136l21 -63q-39 0 -59 18t-20 48t21 48.5t58 18.5t58 -18.5t21 -48.5q0 -13 -4 -30.5t-17 -41.5l-37 -67h-86z" />
    <glyph glyph-name="L" unicode="L" horiz-adv-x="610" 
d="M70 0v700h198v-543h334v-157h-532z" />
    <glyph glyph-name="uni01C7" unicode="&#x1c7;" horiz-adv-x="1168" 
d="M70 0v700h198v-543h334v-157h-532zM833 -14q-77 0 -139.5 26.5t-103.5 76.5l108 128q28 -36 58 -54.5t63 -18.5q88 0 88 102v301h-242v153h438v-442q0 -137 -69 -204.5t-201 -67.5z" />
    <glyph glyph-name="Lacute" unicode="&#x139;" horiz-adv-x="610" 
d="M70 0v700h198v-543h334v-157h-532zM71 757l134 152h190l-188 -152h-136z" />
    <glyph glyph-name="Lcaron" unicode="&#x13d;" horiz-adv-x="610" 
d="M70 0v700h198v-543h334v-157h-532zM427 540v205h137l-25 -205h-112z" />
    <glyph glyph-name="uni013B" unicode="&#x13b;" horiz-adv-x="610" 
d="M70 0v700h198v-543h334v-157h-532zM283 -268l44 136l21 -63q-39 0 -59 18t-20 48t21 48.5t58 18.5t58 -18.5t21 -48.5q0 -13 -4 -30.5t-17 -41.5l-37 -67h-86z" />
    <glyph glyph-name="Ldot" unicode="&#x13f;" horiz-adv-x="610" 
d="M70 0v700h198v-543h334v-157h-532zM475 328q-43 0 -71 28t-28 72t28 72t71 28t71 -28t28 -72t-28 -72t-71 -28z" />
    <glyph glyph-name="uni1E36" unicode="&#x1e36;" horiz-adv-x="610" 
d="M70 0v700h198v-543h334v-157h-532zM348 -218q-33 0 -56 21t-23 56t23 57t56 22t56 -22t23 -57t-23 -56t-56 -21z" />
    <glyph glyph-name="uni01C8" unicode="&#x1c8;" horiz-adv-x="931" 
d="M70 0v700h198v-543h334v-157h-532zM648 -203q-38 0 -72.5 7.5t-59.5 20.5l48 135q26 -16 59 -16q25 0 40.5 17t15.5 54v527h190v-528q0 -99 -58 -158t-163 -59zM774 602q-52 0 -84 29t-32 72t32 72t84 29t84 -27.5t32 -70.5q0 -45 -31.5 -74.5t-84.5 -29.5z" />
    <glyph glyph-name="uni1E3A" unicode="&#x1e3a;" horiz-adv-x="610" 
d="M70 0v700h198v-543h334v-157h-532zM151 -187v102h394v-102h-394z" />
    <glyph glyph-name="Lslash" unicode="&#x141;" horiz-adv-x="627" 
d="M87 0v700h198v-543h334v-157h-532zM40 216l-64 88l409 306l64 -89z" />
    <glyph glyph-name="M" unicode="M" horiz-adv-x="954" 
d="M70 0v700h163l290 -476h-86l282 476h163l2 -700h-182l-2 423h31l-211 -354h-88l-217 354h38v-423h-183z" />
    <glyph glyph-name="uni1E42" unicode="&#x1e42;" horiz-adv-x="954" 
d="M70 0v700h163l290 -476h-86l282 476h163l2 -700h-182l-2 423h31l-211 -354h-88l-217 354h38v-423h-183zM476 -218q-33 0 -56 21t-23 56t23 57t56 22t56 -22t23 -57t-23 -56t-56 -21z" />
    <glyph glyph-name="N" unicode="N" horiz-adv-x="806" 
d="M70 0v700h163l386 -466h-77v466h194v-700h-163l-386 466h77v-466h-194z" />
    <glyph glyph-name="uni01CA" unicode="&#x1ca;" horiz-adv-x="1363" 
d="M70 0v700h163l386 -466h-77v466h194v-700h-163l-386 466h77v-466h-194zM1029 -14q-77 0 -139.5 26.5t-103.5 76.5l108 128q28 -36 58 -54.5t63 -18.5q88 0 88 102v301h-242v153h438v-442q0 -137 -69 -204.5t-201 -67.5z" />
    <glyph glyph-name="Nacute" unicode="&#x143;" horiz-adv-x="806" 
d="M70 0v700h163l386 -466h-77v466h194v-700h-163l-386 466h77v-466h-194zM305 757l134 152h190l-188 -152h-136z" />
    <glyph glyph-name="Ncaron" unicode="&#x147;" horiz-adv-x="806" 
d="M70 0v700h163l386 -466h-77v466h194v-700h-163l-386 466h77v-466h-194zM321 757l-130 152h126l141 -124h-110l141 124h126l-130 -152h-164z" />
    <glyph glyph-name="uni0145" unicode="&#x145;" horiz-adv-x="806" 
d="M70 0v700h163l386 -466h-77v466h194v-700h-163l-386 466h77v-466h-194zM338 -268l44 136l21 -63q-39 0 -59 18t-20 48t21 48.5t58 18.5t58 -18.5t21 -48.5q0 -13 -4 -30.5t-17 -41.5l-37 -67h-86z" />
    <glyph glyph-name="uni1E44" unicode="&#x1e44;" horiz-adv-x="806" 
d="M70 0v700h163l386 -466h-77v466h194v-700h-163l-386 466h77v-466h-194zM403 755q-43 0 -71 27.5t-28 71.5q0 43 28 70.5t71 27.5t71 -27.5t28 -70.5q0 -44 -28 -71.5t-71 -27.5z" />
    <glyph glyph-name="uni1E46" unicode="&#x1e46;" horiz-adv-x="806" 
d="M70 0v700h163l386 -466h-77v466h194v-700h-163l-386 466h77v-466h-194zM403 -218q-33 0 -56 21t-23 56t23 57t56 22t56 -22t23 -57t-23 -56t-56 -21z" />
    <glyph glyph-name="Eng" unicode="&#x14a;" horiz-adv-x="806" 
d="M70 0v700h163l386 -466l-46 -234l-386 466h77v-466h-194zM469 -203q-56 0 -104.5 14.5t-87.5 44.5l91 134q19 -17 40.5 -26t46.5 -9q87 0 87 102v643h194v-614q0 -150 -68 -219.5t-199 -69.5z" />
    <glyph glyph-name="uni01CB" unicode="&#x1cb;" horiz-adv-x="1126" 
d="M70 0v700h163l386 -466h-77v466h194v-700h-163l-386 466h77v-466h-194zM844 -203q-38 0 -72.5 7.5t-59.5 20.5l48 135q26 -16 59 -16q25 0 40.5 17t15.5 54v527h190v-528q0 -99 -58 -158t-163 -59zM970 602q-52 0 -84 29t-32 72t32 72t84 29t84 -27.5t32 -70.5
q0 -45 -31.5 -74.5t-84.5 -29.5z" />
    <glyph glyph-name="uni1E48" unicode="&#x1e48;" horiz-adv-x="806" 
d="M70 0v700h163l386 -466h-77v466h194v-700h-163l-386 466h77v-466h-194zM206 -187v102h394v-102h-394z" />
    <glyph glyph-name="Ntilde" unicode="&#xd1;" horiz-adv-x="806" 
d="M70 0v700h163l386 -466h-77v466h194v-700h-163l-386 466h77v-466h-194zM481 750q-27 0 -47.5 9.5t-37.5 21.5t-31 21.5t-28 9.5q-20 0 -32 -14t-14 -39h-93q2 73 35.5 116t91.5 43q27 0 48 -9t37.5 -21.5t31 -21.5t27.5 -9q20 0 32.5 13.5t13.5 36.5h93
q-1 -70 -35 -113.5t-92 -43.5z" />
    <glyph glyph-name="O" unicode="O" horiz-adv-x="846" 
d="M423 -14q-84 0 -155 27t-123.5 76.5t-81.5 115.5t-29 145t29 145t81.5 115.5t123.5 76.5t155 27q85 0 155.5 -27t122.5 -76.5t81.5 -115.5t29.5 -145t-29.5 -145.5t-81.5 -115.5t-122.5 -76t-155.5 -27zM423 150q40 0 74.5 14t60 40.5t40 63.5t14.5 82q0 46 -14.5 82.5
t-40 63t-60 40.5t-74.5 14t-74.5 -14t-60 -40.5t-40 -63t-14.5 -82.5q0 -45 14.5 -82t40 -63.5t60 -40.5t74.5 -14z" />
    <glyph glyph-name="Oacute" unicode="&#xd3;" horiz-adv-x="846" 
d="M423 -14q-84 0 -155 27t-123.5 76.5t-81.5 115.5t-29 145t29 145t81.5 115.5t123.5 76.5t155 27q85 0 155.5 -27t122.5 -76.5t81.5 -115.5t29.5 -145t-29.5 -145.5t-81.5 -115.5t-122.5 -76t-155.5 -27zM423 150q40 0 74.5 14t60 40.5t40 63.5t14.5 82q0 46 -14.5 82.5
t-40 63t-60 40.5t-74.5 14t-74.5 -14t-60 -40.5t-40 -63t-14.5 -82.5q0 -45 14.5 -82t40 -63.5t60 -40.5t74.5 -14zM325 757l134 152h190l-188 -152h-136z" />
    <glyph glyph-name="Obreve" unicode="&#x14e;" horiz-adv-x="846" 
d="M423 -14q-84 0 -155 27t-123.5 76.5t-81.5 115.5t-29 145t29 145t81.5 115.5t123.5 76.5t155 27q85 0 155.5 -27t122.5 -76.5t81.5 -115.5t29.5 -145t-29.5 -145.5t-81.5 -115.5t-122.5 -76t-155.5 -27zM423 150q40 0 74.5 14t60 40.5t40 63.5t14.5 82q0 46 -14.5 82.5
t-40 63t-60 40.5t-74.5 14t-74.5 -14t-60 -40.5t-40 -63t-14.5 -82.5q0 -45 14.5 -82t40 -63.5t60 -40.5t74.5 -14zM423 748q-84 0 -138.5 43t-57.5 118h116q2 -31 24.5 -48.5t55.5 -17.5t56 17.5t24 48.5h116q-3 -75 -57.5 -118t-138.5 -43z" />
    <glyph glyph-name="Ocircumflex" unicode="&#xd4;" horiz-adv-x="846" 
d="M423 -14q-84 0 -155 27t-123.5 76.5t-81.5 115.5t-29 145t29 145t81.5 115.5t123.5 76.5t155 27q85 0 155.5 -27t122.5 -76.5t81.5 -115.5t29.5 -145t-29.5 -145.5t-81.5 -115.5t-122.5 -76t-155.5 -27zM423 150q40 0 74.5 14t60 40.5t40 63.5t14.5 82q0 46 -14.5 82.5
t-40 63t-60 40.5t-74.5 14t-74.5 -14t-60 -40.5t-40 -63t-14.5 -82.5q0 -45 14.5 -82t40 -63.5t60 -40.5t74.5 -14zM211 757l130 152h164l130 -152h-126l-141 125h110l-141 -125h-126z" />
    <glyph glyph-name="uni1ED0" unicode="&#x1ed0;" horiz-adv-x="846" 
d="M423 -14q-84 0 -155 27t-123.5 76.5t-81.5 115.5t-29 145t29 145t81.5 115.5t123.5 76.5t155 27q85 0 155.5 -27t122.5 -76.5t81.5 -115.5t29.5 -145t-29.5 -145.5t-81.5 -115.5t-122.5 -76t-155.5 -27zM423 150q40 0 74.5 14t60 40.5t40 63.5t14.5 82q0 46 -14.5 82.5
t-40 63t-60 40.5t-74.5 14t-74.5 -14t-60 -40.5t-40 -63t-14.5 -82.5q0 -45 14.5 -82t40 -63.5t60 -40.5t74.5 -14zM211 757l131 122h162l131 -122h-127l-137 95h104l-137 -95h-127zM555 857l106 125h186l-161 -125h-131z" />
    <glyph glyph-name="uni1ED8" unicode="&#x1ed8;" horiz-adv-x="846" 
d="M423 -14q-84 0 -155 27t-123.5 76.5t-81.5 115.5t-29 145t29 145t81.5 115.5t123.5 76.5t155 27q85 0 155.5 -27t122.5 -76.5t81.5 -115.5t29.5 -145t-29.5 -145.5t-81.5 -115.5t-122.5 -76t-155.5 -27zM423 150q40 0 74.5 14t60 40.5t40 63.5t14.5 82q0 46 -14.5 82.5
t-40 63t-60 40.5t-74.5 14t-74.5 -14t-60 -40.5t-40 -63t-14.5 -82.5q0 -45 14.5 -82t40 -63.5t60 -40.5t74.5 -14zM423 -218q-33 0 -56 21t-23 56t23 57t56 22t56 -22t23 -57t-23 -56t-56 -21zM211 757l130 152h164l130 -152h-126l-141 125h110l-141 -125h-126z" />
    <glyph glyph-name="uni1ED2" unicode="&#x1ed2;" horiz-adv-x="846" 
d="M423 -14q-84 0 -155 27t-123.5 76.5t-81.5 115.5t-29 145t29 145t81.5 115.5t123.5 76.5t155 27q85 0 155.5 -27t122.5 -76.5t81.5 -115.5t29.5 -145t-29.5 -145.5t-81.5 -115.5t-122.5 -76t-155.5 -27zM423 150q40 0 74.5 14t60 40.5t40 63.5t14.5 82q0 46 -14.5 82.5
t-40 63t-60 40.5t-74.5 14t-74.5 -14t-60 -40.5t-40 -63t-14.5 -82.5q0 -45 14.5 -82t40 -63.5t60 -40.5t74.5 -14zM211 757l131 122h162l131 -122h-127l-137 95h104l-137 -95h-127zM615 857l-162 125h186l106 -125h-130z" />
    <glyph glyph-name="uni1ED4" unicode="&#x1ed4;" horiz-adv-x="846" 
d="M423 -14q-84 0 -155 27t-123.5 76.5t-81.5 115.5t-29 145t29 145t81.5 115.5t123.5 76.5t155 27q85 0 155.5 -27t122.5 -76.5t81.5 -115.5t29.5 -145t-29.5 -145.5t-81.5 -115.5t-122.5 -76t-155.5 -27zM423 150q40 0 74.5 14t60 40.5t40 63.5t14.5 82q0 46 -14.5 82.5
t-40 63t-60 40.5t-74.5 14t-74.5 -14t-60 -40.5t-40 -63t-14.5 -82.5q0 -45 14.5 -82t40 -63.5t60 -40.5t74.5 -14zM211 757l131 122h162l131 -122h-127l-137 95h104l-137 -95h-127zM619 837l-45 41q20 11 28 21.5t8 18.5q0 12 -9 19.5t-23 7.5q-21 0 -45 -12l-30 54
q19 12 42.5 18t48.5 6q45 0 72 -22.5t27 -60.5q0 -32 -21.5 -55.5t-52.5 -35.5z" />
    <glyph glyph-name="uni1ED6" unicode="&#x1ed6;" horiz-adv-x="846" 
d="M423 -14q-84 0 -155 27t-123.5 76.5t-81.5 115.5t-29 145t29 145t81.5 115.5t123.5 76.5t155 27q85 0 155.5 -27t122.5 -76.5t81.5 -115.5t29.5 -145t-29.5 -145.5t-81.5 -115.5t-122.5 -76t-155.5 -27zM423 150q40 0 74.5 14t60 40.5t40 63.5t14.5 82q0 46 -14.5 82.5
t-40 63t-60 40.5t-74.5 14t-74.5 -14t-60 -40.5t-40 -63t-14.5 -82.5q0 -45 14.5 -82t40 -63.5t60 -40.5t74.5 -14zM211 757l131 122h162l131 -122h-127l-137 95h104l-137 -95h-127zM498 914q-35 0 -60 13t-44 25.5t-34 12.5q-19 0 -30 -12t-13 -31h-95q1 65 34.5 100.5
t92.5 35.5q35 0 60 -12.5t44 -25.5t35 -13q20 0 31.5 12.5t12.5 30.5h92q-1 -63 -33 -99.5t-93 -36.5z" />
    <glyph glyph-name="uni020C" unicode="&#x20c;" horiz-adv-x="846" 
d="M423 -14q-84 0 -155 27t-123.5 76.5t-81.5 115.5t-29 145t29 145t81.5 115.5t123.5 76.5t155 27q85 0 155.5 -27t122.5 -76.5t81.5 -115.5t29.5 -145t-29.5 -145.5t-81.5 -115.5t-122.5 -76t-155.5 -27zM423 150q40 0 74.5 14t60 40.5t40 63.5t14.5 82q0 46 -14.5 82.5
t-40 63t-60 40.5t-74.5 14t-74.5 -14t-60 -40.5t-40 -63t-14.5 -82.5q0 -45 14.5 -82t40 -63.5t60 -40.5t74.5 -14zM466 757l-101 152h170l63 -152h-132zM248 757l-100 152h170l62 -152h-132z" />
    <glyph glyph-name="Odieresis" unicode="&#xd6;" horiz-adv-x="846" 
d="M423 -14q-84 0 -155 27t-123.5 76.5t-81.5 115.5t-29 145t29 145t81.5 115.5t123.5 76.5t155 27q85 0 155.5 -27t122.5 -76.5t81.5 -115.5t29.5 -145t-29.5 -145.5t-81.5 -115.5t-122.5 -76t-155.5 -27zM423 150q40 0 74.5 14t60 40.5t40 63.5t14.5 82q0 46 -14.5 82.5
t-40 63t-60 40.5t-74.5 14t-74.5 -14t-60 -40.5t-40 -63t-14.5 -82.5q0 -45 14.5 -82t40 -63.5t60 -40.5t74.5 -14zM529 756q-33 0 -56 21.5t-23 56.5t23 57t56 22t56 -22t23 -57t-23 -56.5t-56 -21.5zM317 756q-33 0 -56 21.5t-23 56.5t23 57t56 22t56 -22t23 -57
t-23 -56.5t-56 -21.5z" />
    <glyph glyph-name="uni022A" unicode="&#x22a;" horiz-adv-x="846" 
d="M423 -14q-84 0 -155 27t-123.5 76.5t-81.5 115.5t-29 145t29 145t81.5 115.5t123.5 76.5t155 27q85 0 155.5 -27t122.5 -76.5t81.5 -115.5t29.5 -145t-29.5 -145.5t-81.5 -115.5t-122.5 -76t-155.5 -27zM423 150q40 0 74.5 14t60 40.5t40 63.5t14.5 82q0 46 -14.5 82.5
t-40 63t-60 40.5t-74.5 14t-74.5 -14t-60 -40.5t-40 -63t-14.5 -82.5q0 -45 14.5 -82t40 -63.5t60 -40.5t74.5 -14zM525 756q-32 0 -53.5 20.5t-21.5 53.5t21.5 54t53.5 21t53.5 -21t21.5 -54t-21.5 -53.5t-53.5 -20.5zM321 756q-31 0 -53 20.5t-22 53.5t22 54t53 21
q32 0 54 -21t22 -54t-22 -53.5t-54 -20.5zM226 941v98h394v-98h-394z" />
    <glyph glyph-name="uni0230" unicode="&#x230;" horiz-adv-x="846" 
d="M423 -14q-84 0 -155 27t-123.5 76.5t-81.5 115.5t-29 145t29 145t81.5 115.5t123.5 76.5t155 27q85 0 155.5 -27t122.5 -76.5t81.5 -115.5t29.5 -145t-29.5 -145.5t-81.5 -115.5t-122.5 -76t-155.5 -27zM423 150q40 0 74.5 14t60 40.5t40 63.5t14.5 82q0 46 -14.5 82.5
t-40 63t-60 40.5t-74.5 14t-74.5 -14t-60 -40.5t-40 -63t-14.5 -82.5q0 -45 14.5 -82t40 -63.5t60 -40.5t74.5 -14zM423 754q-33 0 -56 21t-23 57q0 35 23 56.5t56 21.5t56 -21.5t23 -56.5q0 -36 -23 -57t-56 -21zM226 949v98h394v-98h-394z" />
    <glyph glyph-name="uni1ECC" unicode="&#x1ecc;" horiz-adv-x="846" 
d="M423 -14q-84 0 -155 27t-123.5 76.5t-81.5 115.5t-29 145t29 145t81.5 115.5t123.5 76.5t155 27q85 0 155.5 -27t122.5 -76.5t81.5 -115.5t29.5 -145t-29.5 -145.5t-81.5 -115.5t-122.5 -76t-155.5 -27zM423 150q40 0 74.5 14t60 40.5t40 63.5t14.5 82q0 46 -14.5 82.5
t-40 63t-60 40.5t-74.5 14t-74.5 -14t-60 -40.5t-40 -63t-14.5 -82.5q0 -45 14.5 -82t40 -63.5t60 -40.5t74.5 -14zM423 -218q-33 0 -56 21t-23 56t23 57t56 22t56 -22t23 -57t-23 -56t-56 -21z" />
    <glyph glyph-name="Ograve" unicode="&#xd2;" horiz-adv-x="846" 
d="M423 -14q-84 0 -155 27t-123.5 76.5t-81.5 115.5t-29 145t29 145t81.5 115.5t123.5 76.5t155 27q85 0 155.5 -27t122.5 -76.5t81.5 -115.5t29.5 -145t-29.5 -145.5t-81.5 -115.5t-122.5 -76t-155.5 -27zM423 150q40 0 74.5 14t60 40.5t40 63.5t14.5 82q0 46 -14.5 82.5
t-40 63t-60 40.5t-74.5 14t-74.5 -14t-60 -40.5t-40 -63t-14.5 -82.5q0 -45 14.5 -82t40 -63.5t60 -40.5t74.5 -14zM385 757l-188 152h190l134 -152h-136z" />
    <glyph glyph-name="uni1ECE" unicode="&#x1ece;" horiz-adv-x="846" 
d="M423 -14q-84 0 -155 27t-123.5 76.5t-81.5 115.5t-29 145t29 145t81.5 115.5t123.5 76.5t155 27q85 0 155.5 -27t122.5 -76.5t81.5 -115.5t29.5 -145t-29.5 -145.5t-81.5 -115.5t-122.5 -76t-155.5 -27zM423 150q40 0 74.5 14t60 40.5t40 63.5t14.5 82q0 46 -14.5 82.5
t-40 63t-60 40.5t-74.5 14t-74.5 -14t-60 -40.5t-40 -63t-14.5 -82.5q0 -45 14.5 -82t40 -63.5t60 -40.5t74.5 -14zM459 747l-58 58q29 14 39 28.5t10 29.5q0 19 -12.5 29.5t-32.5 10.5q-29 0 -58 -20l-39 74q24 18 55 27.5t63 9.5q58 0 94.5 -32t36.5 -83q0 -46 -25 -78
t-73 -54z" />
    <glyph glyph-name="Ohorn" unicode="&#x1a0;" horiz-adv-x="846" 
d="M423 -14q-84 0 -155 27t-123.5 76.5t-81.5 116t-29 144.5q0 79 29 145.5t82 115.5t126 76t160 27q55 0 100 -6.5t79 -6.5t54.5 15.5t20.5 46.5q0 17 -6 32t-14 26l109 39q16 -21 25.5 -47t9.5 -58q0 -81 -56 -123t-150 -42q-44 0 -84 5t-77 10l224 29q44 -30 76.5 -73
t51 -96t18.5 -115q0 -79 -29.5 -145.5t-81.5 -115.5t-122.5 -76t-155.5 -27zM423 150q40 0 74.5 14t60 40.5t40 63.5t14.5 82t-14.5 82t-40 63.5t-60 40.5t-74.5 14t-74.5 -14t-60 -40.5t-40 -63t-14.5 -82.5q0 -45 14.5 -82t40 -63.5t60 -40.5t74.5 -14z" />
    <glyph glyph-name="uni1EDA" unicode="&#x1eda;" horiz-adv-x="846" 
d="M423 -14q-84 0 -155 27t-123.5 76.5t-81.5 116t-29 144.5q0 79 29 145.5t82 115.5t126 76t160 27q55 0 100 -6.5t79 -6.5t54.5 15.5t20.5 46.5q0 17 -6 32t-14 26l109 39q16 -21 25.5 -47t9.5 -58q0 -81 -56 -123t-150 -42q-44 0 -84 5t-77 10l224 29q44 -30 76.5 -73
t51 -96t18.5 -115q0 -79 -29.5 -145.5t-81.5 -115.5t-122.5 -76t-155.5 -27zM423 150q40 0 74.5 14t60 40.5t40 63.5t14.5 82t-14.5 82t-40 63.5t-60 40.5t-74.5 14t-74.5 -14t-60 -40.5t-40 -63t-14.5 -82.5q0 -45 14.5 -82t40 -63.5t60 -40.5t74.5 -14zM325 757l134 152
h190l-188 -152h-136z" />
    <glyph glyph-name="uni1EE2" unicode="&#x1ee2;" horiz-adv-x="846" 
d="M423 -14q-84 0 -155 27t-123.5 76.5t-81.5 116t-29 144.5q0 79 29 145.5t82 115.5t126 76t160 27q55 0 100 -6.5t79 -6.5t54.5 15.5t20.5 46.5q0 17 -6 32t-14 26l109 39q16 -21 25.5 -47t9.5 -58q0 -81 -56 -123t-150 -42q-44 0 -84 5t-77 10l224 29q44 -30 76.5 -73
t51 -96t18.5 -115q0 -79 -29.5 -145.5t-81.5 -115.5t-122.5 -76t-155.5 -27zM423 150q40 0 74.5 14t60 40.5t40 63.5t14.5 82t-14.5 82t-40 63.5t-60 40.5t-74.5 14t-74.5 -14t-60 -40.5t-40 -63t-14.5 -82.5q0 -45 14.5 -82t40 -63.5t60 -40.5t74.5 -14zM423 -218
q-33 0 -56 21t-23 56t23 57t56 22t56 -22t23 -57t-23 -56t-56 -21z" />
    <glyph glyph-name="uni1EDC" unicode="&#x1edc;" horiz-adv-x="846" 
d="M423 -14q-84 0 -155 27t-123.5 76.5t-81.5 116t-29 144.5q0 79 29 145.5t82 115.5t126 76t160 27q55 0 100 -6.5t79 -6.5t54.5 15.5t20.5 46.5q0 17 -6 32t-14 26l109 39q16 -21 25.5 -47t9.5 -58q0 -81 -56 -123t-150 -42q-44 0 -84 5t-77 10l224 29q44 -30 76.5 -73
t51 -96t18.5 -115q0 -79 -29.5 -145.5t-81.5 -115.5t-122.5 -76t-155.5 -27zM423 150q40 0 74.5 14t60 40.5t40 63.5t14.5 82t-14.5 82t-40 63.5t-60 40.5t-74.5 14t-74.5 -14t-60 -40.5t-40 -63t-14.5 -82.5q0 -45 14.5 -82t40 -63.5t60 -40.5t74.5 -14zM385 757l-188 152
h190l134 -152h-136z" />
    <glyph glyph-name="uni1EDE" unicode="&#x1ede;" horiz-adv-x="846" 
d="M423 -14q-84 0 -155 27t-123.5 76.5t-81.5 116t-29 144.5q0 79 29 145.5t82 115.5t126 76t160 27q55 0 100 -6.5t79 -6.5t54.5 15.5t20.5 46.5q0 17 -6 32t-14 26l109 39q16 -21 25.5 -47t9.5 -58q0 -81 -56 -123t-150 -42q-44 0 -84 5t-77 10l224 29q44 -30 76.5 -73
t51 -96t18.5 -115q0 -79 -29.5 -145.5t-81.5 -115.5t-122.5 -76t-155.5 -27zM423 150q40 0 74.5 14t60 40.5t40 63.5t14.5 82t-14.5 82t-40 63.5t-60 40.5t-74.5 14t-74.5 -14t-60 -40.5t-40 -63t-14.5 -82.5q0 -45 14.5 -82t40 -63.5t60 -40.5t74.5 -14zM459 747l-58 58
q29 14 39 28.5t10 29.5q0 19 -12.5 29.5t-32.5 10.5q-29 0 -58 -20l-39 74q24 18 55 27.5t63 9.5q58 0 94.5 -32t36.5 -83q0 -46 -25 -78t-73 -54z" />
    <glyph glyph-name="uni1EE0" unicode="&#x1ee0;" horiz-adv-x="846" 
d="M423 -14q-84 0 -155 27t-123.5 76.5t-81.5 116t-29 144.5q0 79 29 145.5t82 115.5t126 76t160 27q55 0 100 -6.5t79 -6.5t54.5 15.5t20.5 46.5q0 17 -6 32t-14 26l109 39q16 -21 25.5 -47t9.5 -58q0 -81 -56 -123t-150 -42q-44 0 -84 5t-77 10l224 29q44 -30 76.5 -73
t51 -96t18.5 -115q0 -79 -29.5 -145.5t-81.5 -115.5t-122.5 -76t-155.5 -27zM423 150q40 0 74.5 14t60 40.5t40 63.5t14.5 82t-14.5 82t-40 63.5t-60 40.5t-74.5 14t-74.5 -14t-60 -40.5t-40 -63t-14.5 -82.5q0 -45 14.5 -82t40 -63.5t60 -40.5t74.5 -14zM501 750
q-27 0 -47.5 9.5t-37.5 21.5t-31 21.5t-28 9.5q-20 0 -32 -14t-14 -39h-93q2 73 35.5 116t91.5 43q27 0 48 -9t37.5 -21.5t31 -21.5t27.5 -9q20 0 32.5 13.5t13.5 36.5h93q-1 -70 -35 -113.5t-92 -43.5z" />
    <glyph glyph-name="Ohungarumlaut" unicode="&#x150;" horiz-adv-x="846" 
d="M423 -14q-84 0 -155 27t-123.5 76.5t-81.5 115.5t-29 145t29 145t81.5 115.5t123.5 76.5t155 27q85 0 155.5 -27t122.5 -76.5t81.5 -115.5t29.5 -145t-29.5 -145.5t-81.5 -115.5t-122.5 -76t-155.5 -27zM423 150q40 0 74.5 14t60 40.5t40 63.5t14.5 82q0 46 -14.5 82.5
t-40 63t-60 40.5t-74.5 14t-74.5 -14t-60 -40.5t-40 -63t-14.5 -82.5q0 -45 14.5 -82t40 -63.5t60 -40.5t74.5 -14zM466 757l62 152h170l-100 -152h-132zM248 757l63 152h170l-101 -152h-132z" />
    <glyph glyph-name="uni020E" unicode="&#x20e;" horiz-adv-x="846" 
d="M423 -14q-84 0 -155 27t-123.5 76.5t-81.5 115.5t-29 145t29 145t81.5 115.5t123.5 76.5t155 27q85 0 155.5 -27t122.5 -76.5t81.5 -115.5t29.5 -145t-29.5 -145.5t-81.5 -115.5t-122.5 -76t-155.5 -27zM423 150q40 0 74.5 14t60 40.5t40 63.5t14.5 82q0 46 -14.5 82.5
t-40 63t-60 40.5t-74.5 14t-74.5 -14t-60 -40.5t-40 -63t-14.5 -82.5q0 -45 14.5 -82t40 -63.5t60 -40.5t74.5 -14zM227 757q3 75 57.5 118t138.5 43t138.5 -43t57.5 -118h-116q-1 30 -24 48t-56 18t-55.5 -18t-24.5 -48h-116z" />
    <glyph glyph-name="Omacron" unicode="&#x14c;" horiz-adv-x="846" 
d="M423 -14q-84 0 -155 27t-123.5 76.5t-81.5 115.5t-29 145t29 145t81.5 115.5t123.5 76.5t155 27q85 0 155.5 -27t122.5 -76.5t81.5 -115.5t29.5 -145t-29.5 -145.5t-81.5 -115.5t-122.5 -76t-155.5 -27zM423 150q40 0 74.5 14t60 40.5t40 63.5t14.5 82q0 46 -14.5 82.5
t-40 63t-60 40.5t-74.5 14t-74.5 -14t-60 -40.5t-40 -63t-14.5 -82.5q0 -45 14.5 -82t40 -63.5t60 -40.5t74.5 -14zM226 782v102h394v-102h-394z" />
    <glyph glyph-name="uni1E52" unicode="&#x1e52;" horiz-adv-x="846" 
d="M423 -14q-84 0 -155 27t-123.5 76.5t-81.5 115.5t-29 145t29 145t81.5 115.5t123.5 76.5t155 27q85 0 155.5 -27t122.5 -76.5t81.5 -115.5t29.5 -145t-29.5 -145.5t-81.5 -115.5t-122.5 -76t-155.5 -27zM423 150q40 0 74.5 14t60 40.5t40 63.5t14.5 82q0 46 -14.5 82.5
t-40 63t-60 40.5t-74.5 14t-74.5 -14t-60 -40.5t-40 -63t-14.5 -82.5q0 -45 14.5 -82t40 -63.5t60 -40.5t74.5 -14zM226 769v98h394v-98h-394zM328 929l106 125h186l-161 -125h-131z" />
    <glyph glyph-name="uni1E50" unicode="&#x1e50;" horiz-adv-x="846" 
d="M423 -14q-84 0 -155 27t-123.5 76.5t-81.5 115.5t-29 145t29 145t81.5 115.5t123.5 76.5t155 27q85 0 155.5 -27t122.5 -76.5t81.5 -115.5t29.5 -145t-29.5 -145.5t-81.5 -115.5t-122.5 -76t-155.5 -27zM423 150q40 0 74.5 14t60 40.5t40 63.5t14.5 82q0 46 -14.5 82.5
t-40 63t-60 40.5t-74.5 14t-74.5 -14t-60 -40.5t-40 -63t-14.5 -82.5q0 -45 14.5 -82t40 -63.5t60 -40.5t74.5 -14zM226 769v98h394v-98h-394zM388 929l-162 125h186l106 -125h-130z" />
    <glyph glyph-name="uni01EA" unicode="&#x1ea;" horiz-adv-x="846" 
d="M451 -236q-70 0 -109 32.5t-39 84.5q0 35 17.5 65.5t53.5 55.5t89 43l10 -56q-16 -1 -28 -2t-22 -1q-84 0 -155 27t-123.5 76t-81.5 115.5t-29 145.5t29 145.5t81.5 115.5t123.5 76t155 27q85 0 155.5 -27t122.5 -76t81.5 -115.5t29.5 -145.5q0 -87 -34.5 -156.5
t-93 -117t-131.5 -71.5q-49 -15 -79 -32.5t-43 -36t-13 -38.5q0 -19 14 -31.5t41 -12.5q17 0 32.5 4.5t27.5 10.5l24 -82q-18 -10 -47 -16.5t-59 -6.5zM423 150q40 0 74.5 14t60 40.5t40 63.5t14.5 82q0 46 -14.5 82.5t-40 63t-60 40.5t-74.5 14t-74.5 -14t-60 -40.5
t-40 -63t-14.5 -82.5q0 -45 14.5 -82t40 -63.5t60 -40.5t74.5 -14z" />
    <glyph glyph-name="Oslash" unicode="&#xd8;" horiz-adv-x="846" 
d="M423 -14q-84 0 -155 27t-123.5 76.5t-81.5 115.5t-29 145t29 145t81.5 115.5t123.5 76.5t155 27q85 0 155.5 -27t122.5 -76.5t81.5 -115.5t29.5 -145t-29.5 -145.5t-81.5 -115.5t-122.5 -76t-155.5 -27zM423 150q40 0 74.5 14t60 40.5t40 63.5t14.5 82q0 46 -14.5 82.5
t-40 63t-60 40.5t-74.5 14t-74.5 -14t-60 -40.5t-40 -63t-14.5 -82.5q0 -45 14.5 -82t40 -63.5t60 -40.5t74.5 -14zM66 -70l597 840h117l-597 -840h-117z" />
    <glyph glyph-name="Oslashacute" unicode="&#x1fe;" horiz-adv-x="846" 
d="M423 -14q-84 0 -155 27t-123.5 76.5t-81.5 115.5t-29 145t29 145t81.5 115.5t123.5 76.5t155 27q85 0 155.5 -27t122.5 -76.5t81.5 -115.5t29.5 -145t-29.5 -145.5t-81.5 -115.5t-122.5 -76t-155.5 -27zM423 150q40 0 74.5 14t60 40.5t40 63.5t14.5 82q0 46 -14.5 82.5
t-40 63t-60 40.5t-74.5 14t-74.5 -14t-60 -40.5t-40 -63t-14.5 -82.5q0 -45 14.5 -82t40 -63.5t60 -40.5t74.5 -14zM66 -70l597 840h117l-597 -840h-117zM325 757l134 152h190l-188 -152h-136z" />
    <glyph glyph-name="Otilde" unicode="&#xd5;" horiz-adv-x="846" 
d="M423 -14q-84 0 -155 27t-123.5 76.5t-81.5 115.5t-29 145t29 145t81.5 115.5t123.5 76.5t155 27q85 0 155.5 -27t122.5 -76.5t81.5 -115.5t29.5 -145t-29.5 -145.5t-81.5 -115.5t-122.5 -76t-155.5 -27zM423 150q40 0 74.5 14t60 40.5t40 63.5t14.5 82q0 46 -14.5 82.5
t-40 63t-60 40.5t-74.5 14t-74.5 -14t-60 -40.5t-40 -63t-14.5 -82.5q0 -45 14.5 -82t40 -63.5t60 -40.5t74.5 -14zM501 750q-27 0 -47.5 9.5t-37.5 21.5t-31 21.5t-28 9.5q-20 0 -32 -14t-14 -39h-93q2 73 35.5 116t91.5 43q27 0 48 -9t37.5 -21.5t31 -21.5t27.5 -9
q20 0 32.5 13.5t13.5 36.5h93q-1 -70 -35 -113.5t-92 -43.5z" />
    <glyph glyph-name="uni1E4C" unicode="&#x1e4c;" horiz-adv-x="846" 
d="M423 -14q-84 0 -155 27t-123.5 76.5t-81.5 115.5t-29 145t29 145t81.5 115.5t123.5 76.5t155 27q85 0 155.5 -27t122.5 -76.5t81.5 -115.5t29.5 -145t-29.5 -145.5t-81.5 -115.5t-122.5 -76t-155.5 -27zM423 150q40 0 74.5 14t60 40.5t40 63.5t14.5 82q0 46 -14.5 82.5
t-40 63t-60 40.5t-74.5 14t-74.5 -14t-60 -40.5t-40 -63t-14.5 -82.5q0 -45 14.5 -82t40 -63.5t60 -40.5t74.5 -14zM498 751q-35 0 -60 13t-44 25.5t-34 12.5q-19 0 -30 -12t-13 -31h-95q1 65 34.5 100.5t92.5 35.5q35 0 60 -12.5t44 -25.5t35 -13q20 0 31.5 12.5t12.5 30.5
h92q-1 -63 -33 -99.5t-93 -36.5zM328 929l106 125h186l-161 -125h-131z" />
    <glyph glyph-name="uni1E4E" unicode="&#x1e4e;" horiz-adv-x="846" 
d="M423 -14q-84 0 -155 27t-123.5 76.5t-81.5 115.5t-29 145t29 145t81.5 115.5t123.5 76.5t155 27q85 0 155.5 -27t122.5 -76.5t81.5 -115.5t29.5 -145t-29.5 -145.5t-81.5 -115.5t-122.5 -76t-155.5 -27zM423 150q40 0 74.5 14t60 40.5t40 63.5t14.5 82q0 46 -14.5 82.5
t-40 63t-60 40.5t-74.5 14t-74.5 -14t-60 -40.5t-40 -63t-14.5 -82.5q0 -45 14.5 -82t40 -63.5t60 -40.5t74.5 -14zM498 751q-35 0 -60 13t-44 25.5t-34 12.5q-19 0 -30 -12t-13 -31h-95q1 65 34.5 100.5t92.5 35.5q35 0 60 -12.5t44 -25.5t35 -13q20 0 31.5 12.5t12.5 30.5
h92q-1 -63 -33 -99.5t-93 -36.5zM525 928q-32 0 -53.5 20.5t-21.5 53.5t21.5 54t53.5 21t53.5 -21t21.5 -54t-21.5 -53.5t-53.5 -20.5zM321 928q-31 0 -53 20.5t-22 53.5t22 54t53 21q32 0 54 -21t22 -54t-22 -53.5t-54 -20.5z" />
    <glyph glyph-name="uni022C" unicode="&#x22c;" horiz-adv-x="846" 
d="M423 -14q-84 0 -155 27t-123.5 76.5t-81.5 115.5t-29 145t29 145t81.5 115.5t123.5 76.5t155 27q85 0 155.5 -27t122.5 -76.5t81.5 -115.5t29.5 -145t-29.5 -145.5t-81.5 -115.5t-122.5 -76t-155.5 -27zM423 150q40 0 74.5 14t60 40.5t40 63.5t14.5 82q0 46 -14.5 82.5
t-40 63t-60 40.5t-74.5 14t-74.5 -14t-60 -40.5t-40 -63t-14.5 -82.5q0 -45 14.5 -82t40 -63.5t60 -40.5t74.5 -14zM498 751q-35 0 -60 13t-44 25.5t-34 12.5q-19 0 -30 -12t-13 -31h-95q1 65 34.5 100.5t92.5 35.5q35 0 60 -12.5t44 -25.5t35 -13q20 0 31.5 12.5t12.5 30.5
h92q-1 -63 -33 -99.5t-93 -36.5zM226 941v98h394v-98h-394z" />
    <glyph glyph-name="OE" unicode="&#x152;" horiz-adv-x="1142" 
d="M425 0q-116 0 -204 43t-137.5 121.5t-49.5 185.5t49.5 185.5t137.5 121.5t204 43h166v-158h-158q-59 0 -104 -22.5t-70 -65.5t-25 -104q0 -60 25 -103.5t70 -66t104 -22.5h158v-158h-166zM722 429h325v-148h-325v148zM736 153h366v-153h-561v700h548v-153h-353v-394z" />
    <glyph glyph-name="P" unicode="P" horiz-adv-x="737" 
d="M70 0v700h320q96 0 165.5 -31t107.5 -89.5t38 -138.5q0 -79 -38 -137t-107.5 -89.5t-165.5 -31.5h-210l88 86v-269h-198zM268 248l-88 91h198q62 0 92.5 27t30.5 75q0 49 -30.5 76t-92.5 27h-198l88 91v-387z" />
    <glyph glyph-name="Thorn" unicode="&#xde;" horiz-adv-x="737" 
d="M227 110v157h151q62 0 92.5 27t30.5 75t-30.5 75t-92.5 27h-151v157h163q96 0 165.5 -31.5t107.5 -89.5t38 -138q0 -79 -38 -137.5t-107.5 -90t-165.5 -31.5h-163zM70 0v701h198v-701h-198z" />
    <glyph glyph-name="Q" unicode="Q" horiz-adv-x="846" 
d="M423 -14q-84 0 -155 27t-123.5 76.5t-81.5 115.5t-29 145t29 145t81.5 115.5t123.5 76.5t155 27q85 0 155.5 -27t122.5 -76t81.5 -115.5t29.5 -145.5t-29.5 -145.5t-81.5 -115.5t-122.5 -76t-155.5 -27zM652 -169q-45 0 -84 9.5t-76.5 30.5t-78 57t-90.5 89l207 52
q25 -37 45 -58t39.5 -30t41.5 -9q58 0 106 49l86 -102q-73 -88 -196 -88zM423 150q40 0 74.5 14t60 40.5t40 63.5t14.5 82q0 46 -14.5 82.5t-40 63t-60 40.5t-74.5 14t-74.5 -14t-60 -40.5t-40 -63t-14.5 -82.5q0 -45 14.5 -82t40 -63.5t60 -40.5t74.5 -14z" />
    <glyph glyph-name="R" unicode="R" horiz-adv-x="740" 
d="M70 0v700h320q96 0 165.5 -31t107.5 -89.5t38 -138.5q0 -79 -38 -136.5t-107.5 -88t-165.5 -30.5h-210l88 83v-269h-198zM503 0l-174 255h211l175 -255h-212zM268 248l-88 91h198q62 0 92.5 27t30.5 75q0 49 -30.5 76t-92.5 27h-198l88 91v-387z" />
    <glyph glyph-name="Racute" unicode="&#x154;" horiz-adv-x="740" 
d="M70 0v700h320q96 0 165.5 -31t107.5 -89.5t38 -138.5q0 -79 -38 -136.5t-107.5 -88t-165.5 -30.5h-210l88 83v-269h-198zM503 0l-174 255h211l175 -255h-212zM268 248l-88 91h198q62 0 92.5 27t30.5 75q0 49 -30.5 76t-92.5 27h-198l88 91v-387zM279 757l134 152h190
l-188 -152h-136z" />
    <glyph glyph-name="Rcaron" unicode="&#x158;" horiz-adv-x="740" 
d="M70 0v700h320q96 0 165.5 -31t107.5 -89.5t38 -138.5q0 -79 -38 -136.5t-107.5 -88t-165.5 -30.5h-210l88 83v-269h-198zM503 0l-174 255h211l175 -255h-212zM268 248l-88 91h198q62 0 92.5 27t30.5 75q0 49 -30.5 76t-92.5 27h-198l88 91v-387zM295 757l-130 152h126
l141 -124h-110l141 124h126l-130 -152h-164z" />
    <glyph glyph-name="uni0156" unicode="&#x156;" horiz-adv-x="740" 
d="M70 0v700h320q96 0 165.5 -31t107.5 -89.5t38 -138.5q0 -79 -38 -136.5t-107.5 -88t-165.5 -30.5h-210l88 83v-269h-198zM503 0l-174 255h211l175 -255h-212zM268 248l-88 91h198q62 0 92.5 27t30.5 75q0 49 -30.5 76t-92.5 27h-198l88 91v-387zM312 -268l44 136l21 -63
q-39 0 -59 18t-20 48t21 48.5t58 18.5t58 -18.5t21 -48.5q0 -13 -4 -30.5t-17 -41.5l-37 -67h-86z" />
    <glyph glyph-name="uni0210" unicode="&#x210;" horiz-adv-x="740" 
d="M70 0v700h320q96 0 165.5 -31t107.5 -89.5t38 -138.5q0 -79 -38 -136.5t-107.5 -88t-165.5 -30.5h-210l88 83v-269h-198zM503 0l-174 255h211l175 -255h-212zM268 248l-88 91h198q62 0 92.5 27t30.5 75q0 49 -30.5 76t-92.5 27h-198l88 91v-387zM420 757l-101 152h170
l63 -152h-132zM202 757l-100 152h170l62 -152h-132z" />
    <glyph glyph-name="uni1E5A" unicode="&#x1e5a;" horiz-adv-x="740" 
d="M70 0v700h320q96 0 165.5 -31t107.5 -89.5t38 -138.5q0 -79 -38 -136.5t-107.5 -88t-165.5 -30.5h-210l88 83v-269h-198zM503 0l-174 255h211l175 -255h-212zM268 248l-88 91h198q62 0 92.5 27t30.5 75q0 49 -30.5 76t-92.5 27h-198l88 91v-387zM377 -218q-33 0 -56 21
t-23 56t23 57t56 22t56 -22t23 -57t-23 -56t-56 -21z" />
    <glyph glyph-name="uni0212" unicode="&#x212;" horiz-adv-x="740" 
d="M70 0v700h320q96 0 165.5 -31t107.5 -89.5t38 -138.5q0 -79 -38 -136.5t-107.5 -88t-165.5 -30.5h-210l88 83v-269h-198zM503 0l-174 255h211l175 -255h-212zM268 248l-88 91h198q62 0 92.5 27t30.5 75q0 49 -30.5 76t-92.5 27h-198l88 91v-387zM181 757q3 75 57.5 118
t138.5 43t138.5 -43t57.5 -118h-116q-1 30 -24 48t-56 18t-55.5 -18t-24.5 -48h-116z" />
    <glyph glyph-name="uni1E5E" unicode="&#x1e5e;" horiz-adv-x="740" 
d="M70 0v700h320q96 0 165.5 -31t107.5 -89.5t38 -138.5q0 -79 -38 -136.5t-107.5 -88t-165.5 -30.5h-210l88 83v-269h-198zM503 0l-174 255h211l175 -255h-212zM268 248l-88 91h198q62 0 92.5 27t30.5 75q0 49 -30.5 76t-92.5 27h-198l88 91v-387zM180 -187v102h394v-102
h-394z" />
    <glyph glyph-name="S" unicode="S" horiz-adv-x="647" 
d="M316 -14q-86 0 -165.5 21.5t-129.5 55.5l65 146q47 -30 108.5 -49.5t122.5 -19.5q41 0 66 7.5t36.5 20t11.5 29.5q0 24 -22 38t-57 23t-77.5 18t-85 23t-77.5 36.5t-57 59t-22 92.5q0 63 34.5 114t103.5 82t172 31q69 0 135.5 -15.5t118.5 -45.5l-61 -147
q-50 27 -99 40.5t-95 13.5q-41 0 -66 -8.5t-36 -22.5t-11 -32q0 -23 21.5 -36.5t57 -22t78 -17.5t85 -22.5t77.5 -36t56.5 -59t21.5 -91.5q0 -61 -34.5 -112.5t-103 -82.5t-172.5 -31z" />
    <glyph glyph-name="Sacute" unicode="&#x15a;" horiz-adv-x="647" 
d="M316 -14q-86 0 -165.5 21.5t-129.5 55.5l65 146q47 -30 108.5 -49.5t122.5 -19.5q41 0 66 7.5t36.5 20t11.5 29.5q0 24 -22 38t-57 23t-77.5 18t-85 23t-77.5 36.5t-57 59t-22 92.5q0 63 34.5 114t103.5 82t172 31q69 0 135.5 -15.5t118.5 -45.5l-61 -147
q-50 27 -99 40.5t-95 13.5q-41 0 -66 -8.5t-36 -22.5t-11 -32q0 -23 21.5 -36.5t57 -22t78 -17.5t85 -22.5t77.5 -36t56.5 -59t21.5 -91.5q0 -61 -34.5 -112.5t-103 -82.5t-172.5 -31zM229 757l134 152h190l-188 -152h-136z" />
    <glyph glyph-name="uni1E64" unicode="&#x1e64;" horiz-adv-x="647" 
d="M316 -14q-86 0 -165.5 21.5t-129.5 55.5l65 146q47 -30 108.5 -49.5t122.5 -19.5q41 0 66 7.5t36.5 20t11.5 29.5q0 24 -22 38t-57 23t-77.5 18t-85 23t-77.5 36.5t-57 59t-22 92.5q0 63 34.5 114t103.5 82t172 31q69 0 135.5 -15.5t118.5 -45.5l-61 -147
q-50 27 -99 40.5t-95 13.5q-41 0 -66 -8.5t-36 -22.5t-11 -32q0 -23 21.5 -36.5t57 -22t78 -17.5t85 -22.5t77.5 -36t56.5 -59t21.5 -91.5q0 -61 -34.5 -112.5t-103 -82.5t-172.5 -31zM232 757l106 125h186l-161 -125h-131zM327 926q-33 0 -56 21t-23 57q0 35 23 56.5
t56 21.5t56 -21.5t23 -56.5q0 -36 -23 -57t-56 -21z" />
    <glyph glyph-name="uniA78B" unicode="&#xa78b;" horiz-adv-x="319" 
d="M62 296v405h195l-25 -405h-170z" />
    <glyph glyph-name="Scaron" unicode="&#x160;" horiz-adv-x="647" 
d="M316 -14q-86 0 -165.5 21.5t-129.5 55.5l65 146q47 -30 108.5 -49.5t122.5 -19.5q41 0 66 7.5t36.5 20t11.5 29.5q0 24 -22 38t-57 23t-77.5 18t-85 23t-77.5 36.5t-57 59t-22 92.5q0 63 34.5 114t103.5 82t172 31q69 0 135.5 -15.5t118.5 -45.5l-61 -147
q-50 27 -99 40.5t-95 13.5q-41 0 -66 -8.5t-36 -22.5t-11 -32q0 -23 21.5 -36.5t57 -22t78 -17.5t85 -22.5t77.5 -36t56.5 -59t21.5 -91.5q0 -61 -34.5 -112.5t-103 -82.5t-172.5 -31zM245 757l-130 152h126l141 -124h-110l141 124h126l-130 -152h-164z" />
    <glyph glyph-name="uni1E66" unicode="&#x1e66;" horiz-adv-x="647" 
d="M316 -14q-86 0 -165.5 21.5t-129.5 55.5l65 146q47 -30 108.5 -49.5t122.5 -19.5q41 0 66 7.5t36.5 20t11.5 29.5q0 24 -22 38t-57 23t-77.5 18t-85 23t-77.5 36.5t-57 59t-22 92.5q0 63 34.5 114t103.5 82t172 31q69 0 135.5 -15.5t118.5 -45.5l-61 -147
q-50 27 -99 40.5t-95 13.5q-41 0 -66 -8.5t-36 -22.5t-11 -32q0 -23 21.5 -36.5t57 -22t78 -17.5t85 -22.5t77.5 -36t56.5 -59t21.5 -91.5q0 -61 -34.5 -112.5t-103 -82.5t-172.5 -31zM246 757l-131 122h127l137 -95h-104l137 95h127l-131 -122h-162zM327 903q-33 0 -56 21
t-23 57q0 35 23 56.5t56 21.5t56 -21.5t23 -56.5q0 -36 -23 -57t-56 -21z" />
    <glyph glyph-name="Scedilla" unicode="&#x15e;" horiz-adv-x="647" 
d="M316 -14q-86 0 -165.5 21.5t-129.5 55.5l65 146q47 -30 108.5 -49.5t122.5 -19.5q41 0 66 7.5t36.5 20t11.5 29.5q0 24 -22 38t-57 23t-77.5 18t-85 23t-77.5 36.5t-57 59t-22 92.5q0 63 34.5 114t103.5 82t172 31q69 0 135.5 -15.5t118.5 -45.5l-61 -147
q-50 27 -99 40.5t-95 13.5q-41 0 -66 -8.5t-36 -22.5t-11 -32q0 -23 21.5 -36.5t57 -22t78 -17.5t85 -22.5t77.5 -36t56.5 -59t21.5 -91.5q0 -61 -34.5 -112.5t-103 -82.5t-172.5 -31zM290 -236q-25 0 -51.5 6t-43.5 15l26 75q13 -6 28.5 -10t33.5 -4q27 0 38.5 8t11.5 20
t-10.5 18.5t-34.5 6.5h-37l26 110h99l-14 -60q46 -5 66 -29t20 -52q0 -48 -43 -76t-115 -28z" />
    <glyph glyph-name="Scircumflex" unicode="&#x15c;" horiz-adv-x="647" 
d="M316 -14q-86 0 -165.5 21.5t-129.5 55.5l65 146q47 -30 108.5 -49.5t122.5 -19.5q41 0 66 7.5t36.5 20t11.5 29.5q0 24 -22 38t-57 23t-77.5 18t-85 23t-77.5 36.5t-57 59t-22 92.5q0 63 34.5 114t103.5 82t172 31q69 0 135.5 -15.5t118.5 -45.5l-61 -147
q-50 27 -99 40.5t-95 13.5q-41 0 -66 -8.5t-36 -22.5t-11 -32q0 -23 21.5 -36.5t57 -22t78 -17.5t85 -22.5t77.5 -36t56.5 -59t21.5 -91.5q0 -61 -34.5 -112.5t-103 -82.5t-172.5 -31zM115 757l130 152h164l130 -152h-126l-141 125h110l-141 -125h-126z" />
    <glyph glyph-name="uni0218" unicode="&#x218;" horiz-adv-x="647" 
d="M316 -14q-86 0 -165.5 21.5t-129.5 55.5l65 146q47 -30 108.5 -49.5t122.5 -19.5q41 0 66 7.5t36.5 20t11.5 29.5q0 24 -22 38t-57 23t-77.5 18t-85 23t-77.5 36.5t-57 59t-22 92.5q0 63 34.5 114t103.5 82t172 31q69 0 135.5 -15.5t118.5 -45.5l-61 -147
q-50 27 -99 40.5t-95 13.5q-41 0 -66 -8.5t-36 -22.5t-11 -32q0 -23 21.5 -36.5t57 -22t78 -17.5t85 -22.5t77.5 -36t56.5 -59t21.5 -91.5q0 -61 -34.5 -112.5t-103 -82.5t-172.5 -31zM262 -268l44 136l21 -63q-39 0 -59 18t-20 48t21 48.5t58 18.5t58 -18.5t21 -48.5
q0 -13 -4 -30.5t-17 -41.5l-37 -67h-86z" />
    <glyph glyph-name="uni1E60" unicode="&#x1e60;" horiz-adv-x="647" 
d="M316 -14q-86 0 -165.5 21.5t-129.5 55.5l65 146q47 -30 108.5 -49.5t122.5 -19.5q41 0 66 7.5t36.5 20t11.5 29.5q0 24 -22 38t-57 23t-77.5 18t-85 23t-77.5 36.5t-57 59t-22 92.5q0 63 34.5 114t103.5 82t172 31q69 0 135.5 -15.5t118.5 -45.5l-61 -147
q-50 27 -99 40.5t-95 13.5q-41 0 -66 -8.5t-36 -22.5t-11 -32q0 -23 21.5 -36.5t57 -22t78 -17.5t85 -22.5t77.5 -36t56.5 -59t21.5 -91.5q0 -61 -34.5 -112.5t-103 -82.5t-172.5 -31zM327 755q-43 0 -71 27.5t-28 71.5q0 43 28 70.5t71 27.5t71 -27.5t28 -70.5
q0 -44 -28 -71.5t-71 -27.5z" />
    <glyph glyph-name="uni1E62" unicode="&#x1e62;" horiz-adv-x="647" 
d="M316 -14q-86 0 -165.5 21.5t-129.5 55.5l65 146q47 -30 108.5 -49.5t122.5 -19.5q41 0 66 7.5t36.5 20t11.5 29.5q0 24 -22 38t-57 23t-77.5 18t-85 23t-77.5 36.5t-57 59t-22 92.5q0 63 34.5 114t103.5 82t172 31q69 0 135.5 -15.5t118.5 -45.5l-61 -147
q-50 27 -99 40.5t-95 13.5q-41 0 -66 -8.5t-36 -22.5t-11 -32q0 -23 21.5 -36.5t57 -22t78 -17.5t85 -22.5t77.5 -36t56.5 -59t21.5 -91.5q0 -61 -34.5 -112.5t-103 -82.5t-172.5 -31zM327 -218q-33 0 -56 21t-23 56t23 57t56 22t56 -22t23 -57t-23 -56t-56 -21z" />
    <glyph glyph-name="uni1E68" unicode="&#x1e68;" horiz-adv-x="647" 
d="M316 -14q-86 0 -165.5 21.5t-129.5 55.5l65 146q47 -30 108.5 -49.5t122.5 -19.5q41 0 66 7.5t36.5 20t11.5 29.5q0 24 -22 38t-57 23t-77.5 18t-85 23t-77.5 36.5t-57 59t-22 92.5q0 63 34.5 114t103.5 82t172 31q69 0 135.5 -15.5t118.5 -45.5l-61 -147
q-50 27 -99 40.5t-95 13.5q-41 0 -66 -8.5t-36 -22.5t-11 -32q0 -23 21.5 -36.5t57 -22t78 -17.5t85 -22.5t77.5 -36t56.5 -59t21.5 -91.5q0 -61 -34.5 -112.5t-103 -82.5t-172.5 -31zM327 -218q-33 0 -56 21t-23 56t23 57t56 22t56 -22t23 -57t-23 -56t-56 -21zM327 755
q-43 0 -71 27.5t-28 71.5q0 43 28 70.5t71 27.5t71 -27.5t28 -70.5q0 -44 -28 -71.5t-71 -27.5z" />
    <glyph glyph-name="uni1E9E" unicode="&#x1e9e;" horiz-adv-x="788" 
d="M485 -14q-45 0 -82.5 6t-68.5 18l28 151q19 -9 44.5 -15t49.5 -6q49 0 74 19.5t25 57.5q0 37 -25 56.5t-73 19.5q-18 0 -35.5 -2.5t-32.5 -7.5l-34 82l233 269l15 -126q-39 25 -81 38.5t-93 13.5q-82 0 -124.5 -46.5t-42.5 -132.5v-381h-198v386q0 101 42 174.5
t123 113.5t196 40q44 0 91.5 -7.5t91.5 -22.5t76 -37v-116l-185 -213l-76 105q16 4 34.5 6t40.5 2q68 0 127 -26.5t95 -76t36 -120.5q0 -70 -36 -119.5t-97 -76t-138 -26.5z" />
    <glyph glyph-name="uni018F" unicode="&#x18f;" horiz-adv-x="818" 
d="M409 -14q-82 0 -151 26.5t-119 76t-77.5 118t-27.5 151.5v36h571v-119h-435l64 47q0 -43 11.5 -77t34.5 -58.5t55 -37.5t74 -13t74 13t54.5 37.5t34.5 58t12 76.5v37q0 42 -14.5 77.5t-40 61t-60.5 39.5t-77 14q-31 0 -66.5 -9t-68 -27.5t-56.5 -45.5l-117 124
q33 35 82 62.5t107.5 43.5t120.5 16q85 0 156.5 -26.5t124 -75.5t80.5 -115.5t28 -146.5t-28 -147t-78 -115.5t-118.5 -75t-149.5 -26.5z" />
    <glyph glyph-name="T" unicode="T" horiz-adv-x="635" 
d="M219 0v543h-215v157h627v-157h-214v-543h-198z" />
    <glyph glyph-name="Tbar" unicode="&#x166;" horiz-adv-x="635" 
d="M219 0v543h-215v157h627v-157h-214v-543h-198zM93 261v122h450v-122h-450z" />
    <glyph glyph-name="Tcaron" unicode="&#x164;" horiz-adv-x="635" 
d="M219 0v543h-215v157h627v-157h-214v-543h-198zM236 757l-130 152h126l141 -124h-110l141 124h126l-130 -152h-164z" />
    <glyph glyph-name="uni0162" unicode="&#x162;" horiz-adv-x="635" 
d="M219 0v543h-215v157h627v-157h-214v-543h-198zM281 -236q-25 0 -51.5 6t-43.5 15l26 75q13 -6 28.5 -10t33.5 -4q27 0 38.5 8t11.5 20t-10.5 18.5t-34.5 6.5h-37l26 110h99l-14 -60q46 -5 66 -29t20 -52q0 -48 -43 -76t-115 -28z" />
    <glyph glyph-name="uni021A" unicode="&#x21a;" horiz-adv-x="635" 
d="M219 0v543h-215v157h627v-157h-214v-543h-198zM253 -268l44 136l21 -63q-39 0 -59 18t-20 48t21 48.5t58 18.5t58 -18.5t21 -48.5q0 -13 -4 -30.5t-17 -41.5l-37 -67h-86z" />
    <glyph glyph-name="uni1E6C" unicode="&#x1e6c;" horiz-adv-x="635" 
d="M219 0v543h-215v157h627v-157h-214v-543h-198zM318 -218q-33 0 -56 21t-23 56t23 57t56 22t56 -22t23 -57t-23 -56t-56 -21z" />
    <glyph glyph-name="uni1E6E" unicode="&#x1e6e;" horiz-adv-x="635" 
d="M219 0v543h-215v157h627v-157h-214v-543h-198zM121 -187v102h394v-102h-394z" />
    <glyph glyph-name="U" unicode="U" horiz-adv-x="786" 
d="M393 -14q-155 0 -242 85t-87 241v388h198v-382q0 -90 35.5 -129t97.5 -39t97 39t35 129v382h195v-388q0 -156 -87 -241t-242 -85z" />
    <glyph glyph-name="Uacute" unicode="&#xda;" horiz-adv-x="786" 
d="M393 -14q-155 0 -242 85t-87 241v388h198v-382q0 -90 35.5 -129t97.5 -39t97 39t35 129v382h195v-388q0 -156 -87 -241t-242 -85zM297 757l134 152h190l-188 -152h-136z" />
    <glyph glyph-name="Ubreve" unicode="&#x16c;" horiz-adv-x="786" 
d="M393 -14q-155 0 -242 85t-87 241v388h198v-382q0 -90 35.5 -129t97.5 -39t97 39t35 129v382h195v-388q0 -156 -87 -241t-242 -85zM395 748q-84 0 -138.5 43t-57.5 118h116q2 -31 24.5 -48.5t55.5 -17.5t56 17.5t24 48.5h116q-3 -75 -57.5 -118t-138.5 -43z" />
    <glyph glyph-name="uni01D3" unicode="&#x1d3;" horiz-adv-x="786" 
d="M393 -14q-155 0 -242 85t-87 241v388h198v-382q0 -90 35.5 -129t97.5 -39t97 39t35 129v382h195v-388q0 -156 -87 -241t-242 -85zM313 757l-130 152h126l141 -124h-110l141 124h126l-130 -152h-164z" />
    <glyph glyph-name="Ucircumflex" unicode="&#xdb;" horiz-adv-x="786" 
d="M393 -14q-155 0 -242 85t-87 241v388h198v-382q0 -90 35.5 -129t97.5 -39t97 39t35 129v382h195v-388q0 -156 -87 -241t-242 -85zM183 757l130 152h164l130 -152h-126l-141 125h110l-141 -125h-126z" />
    <glyph glyph-name="uni0214" unicode="&#x214;" horiz-adv-x="786" 
d="M393 -14q-155 0 -242 85t-87 241v388h198v-382q0 -90 35.5 -129t97.5 -39t97 39t35 129v382h195v-388q0 -156 -87 -241t-242 -85zM438 757l-101 152h170l63 -152h-132zM220 757l-100 152h170l62 -152h-132z" />
    <glyph glyph-name="Udieresis" unicode="&#xdc;" horiz-adv-x="786" 
d="M393 -14q-155 0 -242 85t-87 241v388h198v-382q0 -90 35.5 -129t97.5 -39t97 39t35 129v382h195v-388q0 -156 -87 -241t-242 -85zM501 756q-33 0 -56 21.5t-23 56.5t23 57t56 22t56 -22t23 -57t-23 -56.5t-56 -21.5zM289 756q-33 0 -56 21.5t-23 56.5t23 57t56 22t56 -22
t23 -57t-23 -56.5t-56 -21.5z" />
    <glyph glyph-name="uni1EE4" unicode="&#x1ee4;" horiz-adv-x="786" 
d="M393 -14q-155 0 -242 85t-87 241v388h198v-382q0 -90 35.5 -129t97.5 -39t97 39t35 129v382h195v-388q0 -156 -87 -241t-242 -85zM395 -218q-33 0 -56 21t-23 56t23 57t56 22t56 -22t23 -57t-23 -56t-56 -21z" />
    <glyph glyph-name="Ugrave" unicode="&#xd9;" horiz-adv-x="786" 
d="M393 -14q-155 0 -242 85t-87 241v388h198v-382q0 -90 35.5 -129t97.5 -39t97 39t35 129v382h195v-388q0 -156 -87 -241t-242 -85zM357 757l-188 152h190l134 -152h-136z" />
    <glyph glyph-name="uni1EE6" unicode="&#x1ee6;" horiz-adv-x="786" 
d="M393 -14q-155 0 -242 85t-87 241v388h198v-382q0 -90 35.5 -129t97.5 -39t97 39t35 129v382h195v-388q0 -156 -87 -241t-242 -85zM431 747l-58 58q29 14 39 28.5t10 29.5q0 19 -12.5 29.5t-32.5 10.5q-29 0 -58 -20l-39 74q24 18 55 27.5t63 9.5q58 0 94.5 -32t36.5 -83
q0 -46 -25 -78t-73 -54z" />
    <glyph glyph-name="Uhorn" unicode="&#x1af;" horiz-adv-x="802" 
d="M393 -14q-155 0 -242 85t-87 241v388h198v-382q0 -90 35.5 -129t97.5 -39t97 39t35 129v382h195v-388q0 -156 -87 -241t-242 -85zM619 580v120h34q24 0 40.5 17.5t16.5 45.5q0 17 -5.5 32.5t-14.5 25.5l110 39q16 -21 25.5 -47t9.5 -58q0 -83 -50 -129t-139 -46h-27z" />
    <glyph glyph-name="uni1EE8" unicode="&#x1ee8;" horiz-adv-x="802" 
d="M393 -14q-155 0 -242 85t-87 241v388h198v-382q0 -90 35.5 -129t97.5 -39t97 39t35 129v382h195v-388q0 -156 -87 -241t-242 -85zM619 580v120h34q24 0 40.5 17.5t16.5 45.5q0 17 -5.5 32.5t-14.5 25.5l110 39q16 -21 25.5 -47t9.5 -58q0 -83 -50 -129t-139 -46h-27z
M297 757l134 152h190l-188 -152h-136z" />
    <glyph glyph-name="uni1EF0" unicode="&#x1ef0;" horiz-adv-x="802" 
d="M393 -14q-155 0 -242 85t-87 241v388h198v-382q0 -90 35.5 -129t97.5 -39t97 39t35 129v382h195v-388q0 -156 -87 -241t-242 -85zM619 580v120h34q24 0 40.5 17.5t16.5 45.5q0 17 -5.5 32.5t-14.5 25.5l110 39q16 -21 25.5 -47t9.5 -58q0 -83 -50 -129t-139 -46h-27z
M395 -218q-33 0 -56 21t-23 56t23 57t56 22t56 -22t23 -57t-23 -56t-56 -21z" />
    <glyph glyph-name="uni1EEA" unicode="&#x1eea;" horiz-adv-x="802" 
d="M393 -14q-155 0 -242 85t-87 241v388h198v-382q0 -90 35.5 -129t97.5 -39t97 39t35 129v382h195v-388q0 -156 -87 -241t-242 -85zM619 580v120h34q24 0 40.5 17.5t16.5 45.5q0 17 -5.5 32.5t-14.5 25.5l110 39q16 -21 25.5 -47t9.5 -58q0 -83 -50 -129t-139 -46h-27z
M357 757l-188 152h190l134 -152h-136z" />
    <glyph glyph-name="uni1EEC" unicode="&#x1eec;" horiz-adv-x="802" 
d="M393 -14q-155 0 -242 85t-87 241v388h198v-382q0 -90 35.5 -129t97.5 -39t97 39t35 129v382h195v-388q0 -156 -87 -241t-242 -85zM619 580v120h34q24 0 40.5 17.5t16.5 45.5q0 17 -5.5 32.5t-14.5 25.5l110 39q16 -21 25.5 -47t9.5 -58q0 -83 -50 -129t-139 -46h-27z
M431 747l-58 58q29 14 39 28.5t10 29.5q0 19 -12.5 29.5t-32.5 10.5q-29 0 -58 -20l-39 74q24 18 55 27.5t63 9.5q58 0 94.5 -32t36.5 -83q0 -46 -25 -78t-73 -54z" />
    <glyph glyph-name="uni1EEE" unicode="&#x1eee;" horiz-adv-x="802" 
d="M393 -14q-155 0 -242 85t-87 241v388h198v-382q0 -90 35.5 -129t97.5 -39t97 39t35 129v382h195v-388q0 -156 -87 -241t-242 -85zM619 580v120h34q24 0 40.5 17.5t16.5 45.5q0 17 -5.5 32.5t-14.5 25.5l110 39q16 -21 25.5 -47t9.5 -58q0 -83 -50 -129t-139 -46h-27z
M473 750q-27 0 -47.5 9.5t-37.5 21.5t-31 21.5t-28 9.5q-20 0 -32 -14t-14 -39h-93q2 73 35.5 116t91.5 43q27 0 48 -9t37.5 -21.5t31 -21.5t27.5 -9q20 0 32.5 13.5t13.5 36.5h93q-1 -70 -35 -113.5t-92 -43.5z" />
    <glyph glyph-name="Uhungarumlaut" unicode="&#x170;" horiz-adv-x="786" 
d="M393 -14q-155 0 -242 85t-87 241v388h198v-382q0 -90 35.5 -129t97.5 -39t97 39t35 129v382h195v-388q0 -156 -87 -241t-242 -85zM438 757l62 152h170l-100 -152h-132zM220 757l63 152h170l-101 -152h-132z" />
    <glyph glyph-name="uni0216" unicode="&#x216;" horiz-adv-x="786" 
d="M393 -14q-155 0 -242 85t-87 241v388h198v-382q0 -90 35.5 -129t97.5 -39t97 39t35 129v382h195v-388q0 -156 -87 -241t-242 -85zM199 757q3 75 57.5 118t138.5 43t138.5 -43t57.5 -118h-116q-1 30 -24 48t-56 18t-55.5 -18t-24.5 -48h-116z" />
    <glyph glyph-name="Umacron" unicode="&#x16a;" horiz-adv-x="786" 
d="M393 -14q-155 0 -242 85t-87 241v388h198v-382q0 -90 35.5 -129t97.5 -39t97 39t35 129v382h195v-388q0 -156 -87 -241t-242 -85zM198 782v102h394v-102h-394z" />
    <glyph glyph-name="uni1E7A" unicode="&#x1e7a;" horiz-adv-x="786" 
d="M393 -14q-155 0 -242 85t-87 241v388h198v-382q0 -90 35.5 -129t97.5 -39t97 39t35 129v382h195v-388q0 -156 -87 -241t-242 -85zM198 769v98h394v-98h-394zM497 928q-32 0 -53.5 20.5t-21.5 53.5t21.5 54t53.5 21t53.5 -21t21.5 -54t-21.5 -53.5t-53.5 -20.5zM293 928
q-31 0 -53 20.5t-22 53.5t22 54t53 21q32 0 54 -21t22 -54t-22 -53.5t-54 -20.5z" />
    <glyph glyph-name="Uogonek" unicode="&#x172;" horiz-adv-x="786" 
d="M527 700h195v-388q0 -124 -52.5 -198t-137.5 -107q-55 -21 -85.5 -40t-42 -35.5t-11.5 -33.5q0 -19 13.5 -31.5t41.5 -12.5q17 0 32.5 4.5t26.5 10.5l25 -82q-18 -10 -47 -16.5t-59 -6.5q-71 0 -109.5 32.5t-38.5 84.5q0 35 17.5 65t53.5 55.5t89 43.5l3 -57
q-12 -1 -24 -1.5t-24 -0.5q-155 0 -242 85t-87 241v388h198v-382q0 -90 35.5 -129t97.5 -39t97 39t35 129v382z" />
    <glyph glyph-name="Uring" unicode="&#x16e;" horiz-adv-x="786" 
d="M393 -14q-155 0 -242 85t-87 241v388h198v-382q0 -90 35.5 -129t97.5 -39t97 39t35 129v382h195v-388q0 -156 -87 -241t-242 -85zM395 749q-37 0 -67 17t-47.5 46t-17.5 64q0 36 17.5 64.5t47.5 46t67 17.5q38 0 67.5 -17.5t47 -46t17.5 -64.5q0 -35 -17.5 -64t-47.5 -46
t-67 -17zM395 819q25 0 41 16t16 41t-16.5 41.5t-40.5 16.5t-40.5 -16t-16.5 -42q0 -25 16.5 -41t40.5 -16z" />
    <glyph glyph-name="Utilde" unicode="&#x168;" horiz-adv-x="786" 
d="M393 -14q-155 0 -242 85t-87 241v388h198v-382q0 -90 35.5 -129t97.5 -39t97 39t35 129v382h195v-388q0 -156 -87 -241t-242 -85zM473 750q-27 0 -47.5 9.5t-37.5 21.5t-31 21.5t-28 9.5q-20 0 -32 -14t-14 -39h-93q2 73 35.5 116t91.5 43q27 0 48 -9t37.5 -21.5
t31 -21.5t27.5 -9q20 0 32.5 13.5t13.5 36.5h93q-1 -70 -35 -113.5t-92 -43.5z" />
    <glyph glyph-name="uni1E78" unicode="&#x1e78;" horiz-adv-x="786" 
d="M393 -14q-155 0 -242 85t-87 241v388h198v-382q0 -90 35.5 -129t97.5 -39t97 39t35 129v382h195v-388q0 -156 -87 -241t-242 -85zM470 751q-35 0 -60 13t-44 25.5t-34 12.5q-19 0 -30 -12t-13 -31h-95q1 65 34.5 100.5t92.5 35.5q35 0 60 -12.5t44 -25.5t35 -13
q20 0 31.5 12.5t12.5 30.5h92q-1 -63 -33 -99.5t-93 -36.5zM300 929l106 125h186l-161 -125h-131z" />
    <glyph glyph-name="V" unicode="V" horiz-adv-x="766" 
d="M285 0l-299 700h214l252 -606h-126l258 606h196l-300 -700h-195z" />
    <glyph glyph-name="W" unicode="W" horiz-adv-x="1184" 
d="M243 0l-227 700h204l191 -606h-103l201 606h182l190 -606h-99l197 606h189l-227 -700h-212l-162 515h57l-169 -515h-212z" />
    <glyph glyph-name="Wacute" unicode="&#x1e82;" horiz-adv-x="1184" 
d="M243 0l-227 700h204l191 -606h-103l201 606h182l190 -606h-99l197 606h189l-227 -700h-212l-162 515h57l-169 -515h-212zM494 757l134 152h190l-188 -152h-136z" />
    <glyph glyph-name="Wcircumflex" unicode="&#x174;" horiz-adv-x="1184" 
d="M243 0l-227 700h204l191 -606h-103l201 606h182l190 -606h-99l197 606h189l-227 -700h-212l-162 515h57l-169 -515h-212zM380 757l130 152h164l130 -152h-126l-141 125h110l-141 -125h-126z" />
    <glyph glyph-name="Wdieresis" unicode="&#x1e84;" horiz-adv-x="1184" 
d="M243 0l-227 700h204l191 -606h-103l201 606h182l190 -606h-99l197 606h189l-227 -700h-212l-162 515h57l-169 -515h-212zM698 756q-33 0 -56 21.5t-23 56.5t23 57t56 22t56 -22t23 -57t-23 -56.5t-56 -21.5zM486 756q-33 0 -56 21.5t-23 56.5t23 57t56 22t56 -22t23 -57
t-23 -56.5t-56 -21.5z" />
    <glyph glyph-name="Wgrave" unicode="&#x1e80;" horiz-adv-x="1184" 
d="M243 0l-227 700h204l191 -606h-103l201 606h182l190 -606h-99l197 606h189l-227 -700h-212l-162 515h57l-169 -515h-212zM554 757l-188 152h190l134 -152h-136z" />
    <glyph glyph-name="X" unicode="X" horiz-adv-x="737" 
d="M-2 0l306 425l-1 -141l-294 416h223l188 -271l-95 -1l185 272h214l-294 -408v140l310 -432h-228l-191 285h91l-188 -285h-226z" />
    <glyph glyph-name="Y" unicode="Y" horiz-adv-x="693" 
d="M247 0v296l46 -119l-313 523h209l226 -379h-121l227 379h192l-312 -523l44 119v-296h-198z" />
    <glyph glyph-name="Yacute" unicode="&#xdd;" horiz-adv-x="693" 
d="M247 0v296l46 -119l-313 523h209l226 -379h-121l227 379h192l-312 -523l44 119v-296h-198zM248 757l134 152h190l-188 -152h-136z" />
    <glyph glyph-name="Ycircumflex" unicode="&#x176;" horiz-adv-x="693" 
d="M247 0v296l46 -119l-313 523h209l226 -379h-121l227 379h192l-312 -523l44 119v-296h-198zM134 757l130 152h164l130 -152h-126l-141 125h110l-141 -125h-126z" />
    <glyph glyph-name="Ydieresis" unicode="&#x178;" horiz-adv-x="693" 
d="M247 0v296l46 -119l-313 523h209l226 -379h-121l227 379h192l-312 -523l44 119v-296h-198zM452 756q-33 0 -56 21.5t-23 56.5t23 57t56 22t56 -22t23 -57t-23 -56.5t-56 -21.5zM240 756q-33 0 -56 21.5t-23 56.5t23 57t56 22t56 -22t23 -57t-23 -56.5t-56 -21.5z" />
    <glyph glyph-name="uni1E8E" unicode="&#x1e8e;" horiz-adv-x="693" 
d="M247 0v296l46 -119l-313 523h209l226 -379h-121l227 379h192l-312 -523l44 119v-296h-198zM346 755q-43 0 -71 27.5t-28 71.5q0 43 28 70.5t71 27.5t71 -27.5t28 -70.5q0 -44 -28 -71.5t-71 -27.5z" />
    <glyph glyph-name="uni1EF4" unicode="&#x1ef4;" horiz-adv-x="693" 
d="M247 0v296l46 -119l-313 523h209l226 -379h-121l227 379h192l-312 -523l44 119v-296h-198zM346 -218q-33 0 -56 21t-23 56t23 57t56 22t56 -22t23 -57t-23 -56t-56 -21z" />
    <glyph glyph-name="Ygrave" unicode="&#x1ef2;" horiz-adv-x="693" 
d="M247 0v296l46 -119l-313 523h209l226 -379h-121l227 379h192l-312 -523l44 119v-296h-198zM308 757l-188 152h190l134 -152h-136z" />
    <glyph glyph-name="uni1EF6" unicode="&#x1ef6;" horiz-adv-x="693" 
d="M247 0v296l46 -119l-313 523h209l226 -379h-121l227 379h192l-312 -523l44 119v-296h-198zM382 747l-58 58q29 14 39 28.5t10 29.5q0 19 -12.5 29.5t-32.5 10.5q-29 0 -58 -20l-39 74q24 18 55 27.5t63 9.5q58 0 94.5 -32t36.5 -83q0 -46 -25 -78t-73 -54z" />
    <glyph glyph-name="uni0232" unicode="&#x232;" horiz-adv-x="693" 
d="M247 0v296l46 -119l-313 523h209l226 -379h-121l227 379h192l-312 -523l44 119v-296h-198zM149 782v102h394v-102h-394z" />
    <glyph glyph-name="uni1EF8" unicode="&#x1ef8;" horiz-adv-x="693" 
d="M247 0v296l46 -119l-313 523h209l226 -379h-121l227 379h192l-312 -523l44 119v-296h-198zM424 750q-27 0 -47.5 9.5t-37.5 21.5t-31 21.5t-28 9.5q-20 0 -32 -14t-14 -39h-93q2 73 35.5 116t91.5 43q27 0 48 -9t37.5 -21.5t31 -21.5t27.5 -9q20 0 32.5 13.5t13.5 36.5
h93q-1 -70 -35 -113.5t-92 -43.5z" />
    <glyph glyph-name="Z" unicode="Z" horiz-adv-x="679" 
d="M35 0v124l412 489l24 -70h-427v157h603v-124l-412 -489l-24 70h451v-157h-627z" />
    <glyph glyph-name="Zacute" unicode="&#x179;" horiz-adv-x="679" 
d="M35 0v124l412 489l24 -70h-427v157h603v-124l-412 -489l-24 70h451v-157h-627zM251 757l134 152h190l-188 -152h-136z" />
    <glyph glyph-name="Zcaron" unicode="&#x17d;" horiz-adv-x="679" 
d="M35 0v124l412 489l24 -70h-427v157h603v-124l-412 -489l-24 70h451v-157h-627zM267 757l-130 152h126l141 -124h-110l141 124h126l-130 -152h-164z" />
    <glyph glyph-name="Zdotaccent" unicode="&#x17b;" horiz-adv-x="679" 
d="M35 0v124l412 489l24 -70h-427v157h603v-124l-412 -489l-24 70h451v-157h-627zM349 755q-43 0 -71 27.5t-28 71.5q0 43 28 70.5t71 27.5t71 -27.5t28 -70.5q0 -44 -28 -71.5t-71 -27.5z" />
    <glyph glyph-name="uni1E92" unicode="&#x1e92;" horiz-adv-x="679" 
d="M35 0v124l412 489l24 -70h-427v157h603v-124l-412 -489l-24 70h451v-157h-627zM351 -218q-33 0 -56 21t-23 56t23 57t56 22t56 -22t23 -57t-23 -56t-56 -21z" />
    <glyph glyph-name="Iacute_J.loclNLD" horiz-adv-x="727" 
d="M328 -9q-85 0 -157 22.5t-124 59.5l72 143q49 -31 101.5 -47.5t98.5 -16.5q73 0 109 39t36 123v386h198v-375q0 -108 -41.5 -182.5t-117 -113t-175.5 -38.5zM64 329v371h198v-371h-198zM74 757l133 152h185l-189 -152h-129zM473 757l133 152h185l-189 -152h-129z" />
    <glyph glyph-name="A.ss01" horiz-adv-x="794" 
d="M64 0v378q0 109 42.5 183.5t117 113.5t173.5 39t174 -39t117 -113.5t42 -183.5v-378h-198v395q0 80 -38 117.5t-98 37.5q-61 0 -99 -37.5t-38 -117.5v-395h-195zM189 155v153h413v-153h-413z" />
    <glyph glyph-name="Aacute.ss01" horiz-adv-x="794" 
d="M64 0v378q0 109 42.5 183.5t117 113.5t173.5 39t174 -39t117 -113.5t42 -183.5v-378h-198v395q0 80 -38 117.5t-98 37.5q-61 0 -99 -37.5t-38 -117.5v-395h-195zM189 155v153h413v-153h-413zM299 757l134 152h190l-188 -152h-136z" />
    <glyph glyph-name="Abreve.ss01" horiz-adv-x="794" 
d="M64 0v378q0 109 42.5 183.5t117 113.5t173.5 39t174 -39t117 -113.5t42 -183.5v-378h-198v395q0 80 -38 117.5t-98 37.5q-61 0 -99 -37.5t-38 -117.5v-395h-195zM189 155v153h413v-153h-413zM397 748q-84 0 -138.5 43t-57.5 118h116q2 -31 24.5 -48.5t55.5 -17.5t56 17.5
t24 48.5h116q-3 -75 -57.5 -118t-138.5 -43z" />
    <glyph glyph-name="uni1EAE.ss01" horiz-adv-x="794" 
d="M64 0v378q0 109 42.5 183.5t117 113.5t173.5 39t174 -39t117 -113.5t42 -183.5v-378h-198v395q0 80 -38 117.5t-98 37.5q-61 0 -99 -37.5t-38 -117.5v-395h-195zM189 155v153h413v-153h-413zM397 748q-83 0 -137 35.5t-59 95.5h110q3 -20 26.5 -32.5t59.5 -12.5
t59.5 12.5t26.5 32.5h110q-4 -60 -58.5 -95.5t-137.5 -35.5zM302 913l106 125h186l-161 -125h-131z" />
    <glyph glyph-name="uni1EB6.ss01" horiz-adv-x="794" 
d="M64 0v378q0 109 42.5 183.5t117 113.5t173.5 39t174 -39t117 -113.5t42 -183.5v-378h-198v395q0 80 -38 117.5t-98 37.5q-61 0 -99 -37.5t-38 -117.5v-395h-195zM189 155v153h413v-153h-413zM397 -218q-33 0 -56 21t-23 56t23 57t56 22t56 -22t23 -57t-23 -56t-56 -21z
M397 748q-84 0 -138.5 43t-57.5 118h116q2 -31 24.5 -48.5t55.5 -17.5t56 17.5t24 48.5h116q-3 -75 -57.5 -118t-138.5 -43z" />
    <glyph glyph-name="uni1EB0.ss01" horiz-adv-x="794" 
d="M64 0v378q0 109 42.5 183.5t117 113.5t173.5 39t174 -39t117 -113.5t42 -183.5v-378h-198v395q0 80 -38 117.5t-98 37.5q-61 0 -99 -37.5t-38 -117.5v-395h-195zM189 155v153h413v-153h-413zM397 748q-83 0 -137 35.5t-59 95.5h110q3 -20 26.5 -32.5t59.5 -12.5
t59.5 12.5t26.5 32.5h110q-4 -60 -58.5 -95.5t-137.5 -35.5zM362 913l-162 125h186l106 -125h-130z" />
    <glyph glyph-name="uni1EB2.ss01" horiz-adv-x="794" 
d="M64 0v378q0 109 42.5 183.5t117 113.5t173.5 39t174 -39t117 -113.5t42 -183.5v-378h-198v395q0 80 -38 117.5t-98 37.5q-61 0 -99 -37.5t-38 -117.5v-395h-195zM189 155v153h413v-153h-413zM397 748q-83 0 -137 35.5t-59 95.5h110q3 -20 26.5 -32.5t59.5 -12.5
t59.5 12.5t26.5 32.5h110q-4 -60 -58.5 -95.5t-137.5 -35.5zM427 883l-45 41q20 11 28 21.5t8 18.5q0 12 -9 19.5t-23 7.5q-21 0 -45 -12l-30 54q19 12 42.5 18t48.5 6q45 0 72 -22.5t27 -60.5q0 -32 -21.5 -55.5t-52.5 -35.5z" />
    <glyph glyph-name="uni1EB4.ss01" horiz-adv-x="794" 
d="M64 0v378q0 109 42.5 183.5t117 113.5t173.5 39t174 -39t117 -113.5t42 -183.5v-378h-198v395q0 80 -38 117.5t-98 37.5q-61 0 -99 -37.5t-38 -117.5v-395h-195zM189 155v153h413v-153h-413zM397 748q-83 0 -137 35.5t-59 95.5h110q3 -20 26.5 -32.5t59.5 -12.5
t59.5 12.5t26.5 32.5h110q-4 -60 -58.5 -95.5t-137.5 -35.5zM472 907q-35 0 -60 13t-44 25.5t-34 12.5q-19 0 -30 -12t-13 -31h-95q1 65 34.5 100.5t92.5 35.5q35 0 60 -12.5t44 -25.5t35 -13q20 0 31.5 12.5t12.5 30.5h92q-1 -63 -33 -99.5t-93 -36.5z" />
    <glyph glyph-name="uni01CD.ss01" horiz-adv-x="794" 
d="M64 0v378q0 109 42.5 183.5t117 113.5t173.5 39t174 -39t117 -113.5t42 -183.5v-378h-198v395q0 80 -38 117.5t-98 37.5q-61 0 -99 -37.5t-38 -117.5v-395h-195zM189 155v153h413v-153h-413zM315 757l-130 152h126l141 -124h-110l141 124h126l-130 -152h-164z" />
    <glyph glyph-name="Acircumflex.ss01" horiz-adv-x="794" 
d="M64 0v378q0 109 42.5 183.5t117 113.5t173.5 39t174 -39t117 -113.5t42 -183.5v-378h-198v395q0 80 -38 117.5t-98 37.5q-61 0 -99 -37.5t-38 -117.5v-395h-195zM189 155v153h413v-153h-413zM185 757l130 152h164l130 -152h-126l-141 125h110l-141 -125h-126z" />
    <glyph glyph-name="uni1EA4.ss01" horiz-adv-x="794" 
d="M64 0v378q0 109 42.5 183.5t117 113.5t173.5 39t174 -39t117 -113.5t42 -183.5v-378h-198v395q0 80 -38 117.5t-98 37.5q-61 0 -99 -37.5t-38 -117.5v-395h-195zM189 155v153h413v-153h-413zM185 757l131 122h162l131 -122h-127l-137 95h104l-137 -95h-127zM529 857
l106 125h186l-161 -125h-131z" />
    <glyph glyph-name="uni1EAC.ss01" horiz-adv-x="794" 
d="M64 0v378q0 109 42.5 183.5t117 113.5t173.5 39t174 -39t117 -113.5t42 -183.5v-378h-198v395q0 80 -38 117.5t-98 37.5q-61 0 -99 -37.5t-38 -117.5v-395h-195zM189 155v153h413v-153h-413zM397 -218q-33 0 -56 21t-23 56t23 57t56 22t56 -22t23 -57t-23 -56t-56 -21z
M185 757l130 152h164l130 -152h-126l-141 125h110l-141 -125h-126z" />
    <glyph glyph-name="uni1EA6.ss01" horiz-adv-x="794" 
d="M64 0v378q0 109 42.5 183.5t117 113.5t173.5 39t174 -39t117 -113.5t42 -183.5v-378h-198v395q0 80 -38 117.5t-98 37.5q-61 0 -99 -37.5t-38 -117.5v-395h-195zM189 155v153h413v-153h-413zM185 757l131 122h162l131 -122h-127l-137 95h104l-137 -95h-127zM589 857
l-162 125h186l106 -125h-130z" />
    <glyph glyph-name="uni1EA8.ss01" horiz-adv-x="794" 
d="M64 0v378q0 109 42.5 183.5t117 113.5t173.5 39t174 -39t117 -113.5t42 -183.5v-378h-198v395q0 80 -38 117.5t-98 37.5q-61 0 -99 -37.5t-38 -117.5v-395h-195zM189 155v153h413v-153h-413zM185 757l131 122h162l131 -122h-127l-137 95h104l-137 -95h-127zM593 837
l-45 41q20 11 28 21.5t8 18.5q0 12 -9 19.5t-23 7.5q-21 0 -45 -12l-30 54q19 12 42.5 18t48.5 6q45 0 72 -22.5t27 -60.5q0 -32 -21.5 -55.5t-52.5 -35.5z" />
    <glyph glyph-name="uni1EAA.ss01" horiz-adv-x="794" 
d="M64 0v378q0 109 42.5 183.5t117 113.5t173.5 39t174 -39t117 -113.5t42 -183.5v-378h-198v395q0 80 -38 117.5t-98 37.5q-61 0 -99 -37.5t-38 -117.5v-395h-195zM189 155v153h413v-153h-413zM185 757l131 122h162l131 -122h-127l-137 95h104l-137 -95h-127zM472 914
q-35 0 -60 13t-44 25.5t-34 12.5q-19 0 -30 -12t-13 -31h-95q1 65 34.5 100.5t92.5 35.5q35 0 60 -12.5t44 -25.5t35 -13q20 0 31.5 12.5t12.5 30.5h92q-1 -63 -33 -99.5t-93 -36.5z" />
    <glyph glyph-name="uni0200.ss01" horiz-adv-x="794" 
d="M64 0v378q0 109 42.5 183.5t117 113.5t173.5 39t174 -39t117 -113.5t42 -183.5v-378h-198v395q0 80 -38 117.5t-98 37.5q-61 0 -99 -37.5t-38 -117.5v-395h-195zM189 155v153h413v-153h-413zM440 757l-101 152h170l63 -152h-132zM222 757l-100 152h170l62 -152h-132z" />
    <glyph glyph-name="Adieresis.ss01" horiz-adv-x="794" 
d="M64 0v378q0 109 42.5 183.5t117 113.5t173.5 39t174 -39t117 -113.5t42 -183.5v-378h-198v395q0 80 -38 117.5t-98 37.5q-61 0 -99 -37.5t-38 -117.5v-395h-195zM189 155v153h413v-153h-413zM503 756q-33 0 -56 21.5t-23 56.5t23 57t56 22t56 -22t23 -57t-23 -56.5
t-56 -21.5zM291 756q-33 0 -56 21.5t-23 56.5t23 57t56 22t56 -22t23 -57t-23 -56.5t-56 -21.5z" />
    <glyph glyph-name="uni1EA0.ss01" horiz-adv-x="794" 
d="M64 0v378q0 109 42.5 183.5t117 113.5t173.5 39t174 -39t117 -113.5t42 -183.5v-378h-198v395q0 80 -38 117.5t-98 37.5q-61 0 -99 -37.5t-38 -117.5v-395h-195zM189 155v153h413v-153h-413zM397 -218q-33 0 -56 21t-23 56t23 57t56 22t56 -22t23 -57t-23 -56t-56 -21z
" />
    <glyph glyph-name="Agrave.ss01" horiz-adv-x="794" 
d="M64 0v378q0 109 42.5 183.5t117 113.5t173.5 39t174 -39t117 -113.5t42 -183.5v-378h-198v395q0 80 -38 117.5t-98 37.5q-61 0 -99 -37.5t-38 -117.5v-395h-195zM189 155v153h413v-153h-413zM359 757l-188 152h190l134 -152h-136z" />
    <glyph glyph-name="uni1EA2.ss01" horiz-adv-x="794" 
d="M64 0v378q0 109 42.5 183.5t117 113.5t173.5 39t174 -39t117 -113.5t42 -183.5v-378h-198v395q0 80 -38 117.5t-98 37.5q-61 0 -99 -37.5t-38 -117.5v-395h-195zM189 155v153h413v-153h-413zM433 747l-58 58q29 14 39 28.5t10 29.5q0 19 -12.5 29.5t-32.5 10.5
q-29 0 -58 -20l-39 74q24 18 55 27.5t63 9.5q58 0 94.5 -32t36.5 -83q0 -46 -25 -78t-73 -54z" />
    <glyph glyph-name="uni0202.ss01" horiz-adv-x="794" 
d="M64 0v378q0 109 42.5 183.5t117 113.5t173.5 39t174 -39t117 -113.5t42 -183.5v-378h-198v395q0 80 -38 117.5t-98 37.5q-61 0 -99 -37.5t-38 -117.5v-395h-195zM189 155v153h413v-153h-413zM201 757q3 75 57.5 118t138.5 43t138.5 -43t57.5 -118h-116q-1 30 -24 48
t-56 18t-55.5 -18t-24.5 -48h-116z" />
    <glyph glyph-name="Amacron.ss01" horiz-adv-x="794" 
d="M64 0v378q0 109 42.5 183.5t117 113.5t173.5 39t174 -39t117 -113.5t42 -183.5v-378h-198v395q0 80 -38 117.5t-98 37.5q-61 0 -99 -37.5t-38 -117.5v-395h-195zM189 155v153h413v-153h-413zM200 782v102h394v-102h-394z" />
    <glyph glyph-name="Aogonek.ss01" horiz-adv-x="794" 
d="M64 0v378q0 109 42.5 183.5t117 113.5t173.5 39t174 -39t117 -113.5t42 -183.5v-378h-198v395q0 80 -38 117.5t-98 37.5q-61 0 -99 -37.5t-38 -117.5v-395h-195zM189 155v153h413v-153h-413zM648 -236q-70 0 -109 32.5t-39 84.5q0 35 18 65t53.5 55.5t88.5 43.5l70 -45
q-42 -19 -67.5 -36t-36.5 -33t-11 -33q0 -19 14 -31.5t41 -12.5q17 0 33 4.5t27 10.5l25 -82q-19 -10 -48 -16.5t-59 -6.5z" />
    <glyph glyph-name="Aring.ss01" horiz-adv-x="794" 
d="M64 0v378q0 109 42.5 183.5t117 113.5t173.5 39t174 -39t117 -113.5t42 -183.5v-378h-198v395q0 80 -38 117.5t-98 37.5q-61 0 -99 -37.5t-38 -117.5v-395h-195zM189 155v153h413v-153h-413zM397 749q-37 0 -67 17t-47.5 46t-17.5 64q0 36 17.5 64.5t47.5 46t67 17.5
q38 0 67.5 -17.5t47 -46t17.5 -64.5q0 -35 -17.5 -64t-47.5 -46t-67 -17zM397 819q25 0 41 16t16 41t-16.5 41.5t-40.5 16.5t-40.5 -16t-16.5 -42q0 -25 16.5 -41t40.5 -16z" />
    <glyph glyph-name="Aringacute.ss01" horiz-adv-x="794" 
d="M64 0v378q0 109 42.5 183.5t117 113.5t173.5 39t174 -39t117 -113.5t42 -183.5v-378h-198v395q0 80 -38 117.5t-98 37.5q-61 0 -99 -37.5t-38 -117.5v-395h-195zM189 155v153h413v-153h-413zM397 749q-37 0 -67 17t-47.5 46t-17.5 64q0 36 17.5 64.5t47.5 46t67 17.5
q38 0 67.5 -17.5t47 -46t17.5 -64.5q0 -35 -17.5 -64t-47.5 -46t-67 -17zM397 819q25 0 41 16t16 41t-16.5 41.5t-40.5 16.5t-40.5 -16t-16.5 -42q0 -25 16.5 -41t40.5 -16zM495 927l-88 28l128 133l93 -70z" />
    <glyph glyph-name="Atilde.ss01" horiz-adv-x="794" 
d="M64 0v378q0 109 42.5 183.5t117 113.5t173.5 39t174 -39t117 -113.5t42 -183.5v-378h-198v395q0 80 -38 117.5t-98 37.5q-61 0 -99 -37.5t-38 -117.5v-395h-195zM189 155v153h413v-153h-413zM475 750q-27 0 -47.5 9.5t-37.5 21.5t-31 21.5t-28 9.5q-20 0 -32 -14t-14 -39
h-93q2 73 35.5 116t91.5 43q27 0 48 -9t37.5 -21.5t31 -21.5t27.5 -9q20 0 32.5 13.5t13.5 36.5h93q-1 -70 -35 -113.5t-92 -43.5z" />
    <glyph glyph-name="AE.ss01" horiz-adv-x="1092" 
d="M495 0v700h548v-153h-353v-119h312v-146h-312v-129h367v-153h-562zM183 163v152h409v-152h-409zM58 0v381q0 155 84.5 237t242.5 82h207v-164h-189q-76 0 -111 -38.5t-35 -121.5v-376h-199z" />
    <glyph glyph-name="AEacute.ss01" horiz-adv-x="1092" 
d="M495 0v700h548v-153h-353v-119h312v-146h-312v-129h367v-153h-562zM183 163v152h409v-152h-409zM58 0v381q0 155 84.5 237t242.5 82h207v-164h-189q-76 0 -111 -38.5t-35 -121.5v-376h-199zM445 757l134 152h190l-188 -152h-136z" />
    <glyph glyph-name="uni01C4.ss01" horiz-adv-x="1445" 
d="M70 0v700h331q116 0 204 -43t137.5 -121t49.5 -186q0 -107 -49.5 -185.5t-137.5 -121.5t-204 -43h-331zM268 158h125q60 0 104.5 22.5t69.5 66t25 103.5q0 61 -25 104t-69.5 65.5t-104.5 22.5h-125v-384zM808 0v112l410 488l27 -53h-428v154h603v-112l-410 -488l-26 52
h451v-153h-627zM861 287v140h285l50 -4h172v-139h-264l-51 3h-192zM1039 757l-130 152h126l141 -124h-110l141 124h126l-130 -152h-164z" />
    <glyph glyph-name="uni01C5.ss01" horiz-adv-x="1392" 
d="M70 0v700h331q116 0 204 -43t137.5 -121t49.5 -186q0 -107 -49.5 -185.5t-137.5 -121.5t-204 -43h-331zM268 158h125q60 0 104.5 22.5t69.5 66t25 103.5q0 61 -25 104t-69.5 65.5t-104.5 22.5h-125v-384zM864 0v112l304 350l32 -61h-329v141h483v-111l-305 -351l-32 62
h347v-142h-500zM1132 214l-50 1h-187v118h233l50 -1h153v-118h-199zM1027 607l-130 152h126l141 -124h-110l141 124h126l-130 -152h-164z" />
    <glyph glyph-name="E.ss01" horiz-adv-x="681" 
d="M381 -14q-115 0 -192.5 27.5t-116.5 76t-39 109.5q0 53 27.5 94t77.5 64.5t117 23.5l5 -46q-64 0 -108.5 22.5t-67 60.5t-22.5 84q0 56 35.5 104t109.5 78t188 30q71 0 137.5 -13t116.5 -35l-54 -148q-49 22 -96.5 31.5t-95.5 9.5q-73 0 -107 -19.5t-34 -50.5
q0 -28 20.5 -44t66.5 -16h198v-151h-211q-34 0 -57 -7.5t-34.5 -22t-11.5 -35.5q0 -32 36.5 -52t119.5 -20q57 0 117.5 15.5t105.5 42.5l60 -146q-53 -30 -130 -48.5t-161 -18.5z" />
    <glyph glyph-name="Eacute.ss01" horiz-adv-x="681" 
d="M381 -14q-115 0 -192.5 27.5t-116.5 76t-39 109.5q0 53 27.5 94t77.5 64.5t117 23.5l5 -46q-64 0 -108.5 22.5t-67 60.5t-22.5 84q0 56 35.5 104t109.5 78t188 30q71 0 137.5 -13t116.5 -35l-54 -148q-49 22 -96.5 31.5t-95.5 9.5q-73 0 -107 -19.5t-34 -50.5
q0 -28 20.5 -44t66.5 -16h198v-151h-211q-34 0 -57 -7.5t-34.5 -22t-11.5 -35.5q0 -32 36.5 -52t119.5 -20q57 0 117.5 15.5t105.5 42.5l60 -146q-53 -30 -130 -48.5t-161 -18.5zM270 757l134 152h190l-188 -152h-136z" />
    <glyph glyph-name="Ebreve.ss01" horiz-adv-x="681" 
d="M381 -14q-115 0 -192.5 27.5t-116.5 76t-39 109.5q0 53 27.5 94t77.5 64.5t117 23.5l5 -46q-64 0 -108.5 22.5t-67 60.5t-22.5 84q0 56 35.5 104t109.5 78t188 30q71 0 137.5 -13t116.5 -35l-54 -148q-49 22 -96.5 31.5t-95.5 9.5q-73 0 -107 -19.5t-34 -50.5
q0 -28 20.5 -44t66.5 -16h198v-151h-211q-34 0 -57 -7.5t-34.5 -22t-11.5 -35.5q0 -32 36.5 -52t119.5 -20q57 0 117.5 15.5t105.5 42.5l60 -146q-53 -30 -130 -48.5t-161 -18.5zM368 748q-84 0 -138.5 43t-57.5 118h116q2 -31 24.5 -48.5t55.5 -17.5t56 17.5t24 48.5h116
q-3 -75 -57.5 -118t-138.5 -43z" />
    <glyph glyph-name="Ecaron.ss01" horiz-adv-x="681" 
d="M381 -14q-115 0 -192.5 27.5t-116.5 76t-39 109.5q0 53 27.5 94t77.5 64.5t117 23.5l5 -46q-64 0 -108.5 22.5t-67 60.5t-22.5 84q0 56 35.5 104t109.5 78t188 30q71 0 137.5 -13t116.5 -35l-54 -148q-49 22 -96.5 31.5t-95.5 9.5q-73 0 -107 -19.5t-34 -50.5
q0 -28 20.5 -44t66.5 -16h198v-151h-211q-34 0 -57 -7.5t-34.5 -22t-11.5 -35.5q0 -32 36.5 -52t119.5 -20q57 0 117.5 15.5t105.5 42.5l60 -146q-53 -30 -130 -48.5t-161 -18.5zM286 757l-130 152h126l141 -124h-110l141 124h126l-130 -152h-164z" />
    <glyph glyph-name="uni1E1C.ss01" horiz-adv-x="681" 
d="M381 -14q-115 0 -192.5 27.5t-116.5 76t-39 109.5q0 53 27.5 94t77.5 64.5t117 23.5l5 -46q-64 0 -108.5 22.5t-67 60.5t-22.5 84q0 56 35.5 104t109.5 78t188 30q71 0 137.5 -13t116.5 -35l-54 -148q-49 22 -96.5 31.5t-95.5 9.5q-73 0 -107 -19.5t-34 -50.5
q0 -28 20.5 -44t66.5 -16h198v-151h-211q-34 0 -57 -7.5t-34.5 -22t-11.5 -35.5q0 -32 36.5 -52t119.5 -20q57 0 117.5 15.5t105.5 42.5l60 -146q-53 -30 -130 -48.5t-161 -18.5zM331 -236q-25 0 -51.5 6t-43.5 15l26 75q13 -6 28.5 -10t33.5 -4q27 0 38.5 8t11.5 20
t-10.5 18.5t-34.5 6.5h-37l26 110h99l-14 -60q46 -5 66 -29t20 -52q0 -48 -43 -76t-115 -28zM368 748q-84 0 -138.5 43t-57.5 118h116q2 -31 24.5 -48.5t55.5 -17.5t56 17.5t24 48.5h116q-3 -75 -57.5 -118t-138.5 -43z" />
    <glyph glyph-name="Ecircumflex.ss01" horiz-adv-x="681" 
d="M381 -14q-115 0 -192.5 27.5t-116.5 76t-39 109.5q0 53 27.5 94t77.5 64.5t117 23.5l5 -46q-64 0 -108.5 22.5t-67 60.5t-22.5 84q0 56 35.5 104t109.5 78t188 30q71 0 137.5 -13t116.5 -35l-54 -148q-49 22 -96.5 31.5t-95.5 9.5q-73 0 -107 -19.5t-34 -50.5
q0 -28 20.5 -44t66.5 -16h198v-151h-211q-34 0 -57 -7.5t-34.5 -22t-11.5 -35.5q0 -32 36.5 -52t119.5 -20q57 0 117.5 15.5t105.5 42.5l60 -146q-53 -30 -130 -48.5t-161 -18.5zM156 757l130 152h164l130 -152h-126l-141 125h110l-141 -125h-126z" />
    <glyph glyph-name="uni1EBE.ss01" horiz-adv-x="681" 
d="M381 -14q-115 0 -192.5 27.5t-116.5 76t-39 109.5q0 53 27.5 94t77.5 64.5t117 23.5l5 -46q-64 0 -108.5 22.5t-67 60.5t-22.5 84q0 56 35.5 104t109.5 78t188 30q71 0 137.5 -13t116.5 -35l-54 -148q-49 22 -96.5 31.5t-95.5 9.5q-73 0 -107 -19.5t-34 -50.5
q0 -28 20.5 -44t66.5 -16h198v-151h-211q-34 0 -57 -7.5t-34.5 -22t-11.5 -35.5q0 -32 36.5 -52t119.5 -20q57 0 117.5 15.5t105.5 42.5l60 -146q-53 -30 -130 -48.5t-161 -18.5zM156 757l131 122h162l131 -122h-127l-137 95h104l-137 -95h-127zM500 857l106 125h186
l-161 -125h-131z" />
    <glyph glyph-name="uni1EC6.ss01" horiz-adv-x="681" 
d="M381 -14q-115 0 -192.5 27.5t-116.5 76t-39 109.5q0 53 27.5 94t77.5 64.5t117 23.5l5 -46q-64 0 -108.5 22.5t-67 60.5t-22.5 84q0 56 35.5 104t109.5 78t188 30q71 0 137.5 -13t116.5 -35l-54 -148q-49 22 -96.5 31.5t-95.5 9.5q-73 0 -107 -19.5t-34 -50.5
q0 -28 20.5 -44t66.5 -16h198v-151h-211q-34 0 -57 -7.5t-34.5 -22t-11.5 -35.5q0 -32 36.5 -52t119.5 -20q57 0 117.5 15.5t105.5 42.5l60 -146q-53 -30 -130 -48.5t-161 -18.5zM368 -218q-33 0 -56 21t-23 56t23 57t56 22t56 -22t23 -57t-23 -56t-56 -21zM156 757l130 152
h164l130 -152h-126l-141 125h110l-141 -125h-126z" />
    <glyph glyph-name="uni1EC0.ss01" horiz-adv-x="681" 
d="M381 -14q-115 0 -192.5 27.5t-116.5 76t-39 109.5q0 53 27.5 94t77.5 64.5t117 23.5l5 -46q-64 0 -108.5 22.5t-67 60.5t-22.5 84q0 56 35.5 104t109.5 78t188 30q71 0 137.5 -13t116.5 -35l-54 -148q-49 22 -96.5 31.5t-95.5 9.5q-73 0 -107 -19.5t-34 -50.5
q0 -28 20.5 -44t66.5 -16h198v-151h-211q-34 0 -57 -7.5t-34.5 -22t-11.5 -35.5q0 -32 36.5 -52t119.5 -20q57 0 117.5 15.5t105.5 42.5l60 -146q-53 -30 -130 -48.5t-161 -18.5zM156 757l131 122h162l131 -122h-127l-137 95h104l-137 -95h-127zM560 857l-162 125h186
l106 -125h-130z" />
    <glyph glyph-name="uni1EC2.ss01" horiz-adv-x="681" 
d="M381 -14q-115 0 -192.5 27.5t-116.5 76t-39 109.5q0 53 27.5 94t77.5 64.5t117 23.5l5 -46q-64 0 -108.5 22.5t-67 60.5t-22.5 84q0 56 35.5 104t109.5 78t188 30q71 0 137.5 -13t116.5 -35l-54 -148q-49 22 -96.5 31.5t-95.5 9.5q-73 0 -107 -19.5t-34 -50.5
q0 -28 20.5 -44t66.5 -16h198v-151h-211q-34 0 -57 -7.5t-34.5 -22t-11.5 -35.5q0 -32 36.5 -52t119.5 -20q57 0 117.5 15.5t105.5 42.5l60 -146q-53 -30 -130 -48.5t-161 -18.5zM156 757l131 122h162l131 -122h-127l-137 95h104l-137 -95h-127zM564 837l-45 41
q20 11 28 21.5t8 18.5q0 12 -9 19.5t-23 7.5q-21 0 -45 -12l-30 54q19 12 42.5 18t48.5 6q45 0 72 -22.5t27 -60.5q0 -32 -21.5 -55.5t-52.5 -35.5z" />
    <glyph glyph-name="uni1EC4.ss01" horiz-adv-x="681" 
d="M381 -14q-115 0 -192.5 27.5t-116.5 76t-39 109.5q0 53 27.5 94t77.5 64.5t117 23.5l5 -46q-64 0 -108.5 22.5t-67 60.5t-22.5 84q0 56 35.5 104t109.5 78t188 30q71 0 137.5 -13t116.5 -35l-54 -148q-49 22 -96.5 31.5t-95.5 9.5q-73 0 -107 -19.5t-34 -50.5
q0 -28 20.5 -44t66.5 -16h198v-151h-211q-34 0 -57 -7.5t-34.5 -22t-11.5 -35.5q0 -32 36.5 -52t119.5 -20q57 0 117.5 15.5t105.5 42.5l60 -146q-53 -30 -130 -48.5t-161 -18.5zM156 757l131 122h162l131 -122h-127l-137 95h104l-137 -95h-127zM443 914q-35 0 -60 13
t-44 25.5t-34 12.5q-19 0 -30 -12t-13 -31h-95q1 65 34.5 100.5t92.5 35.5q35 0 60 -12.5t44 -25.5t35 -13q20 0 31.5 12.5t12.5 30.5h92q-1 -63 -33 -99.5t-93 -36.5z" />
    <glyph glyph-name="uni0204.ss01" horiz-adv-x="681" 
d="M381 -14q-115 0 -192.5 27.5t-116.5 76t-39 109.5q0 53 27.5 94t77.5 64.5t117 23.5l5 -46q-64 0 -108.5 22.5t-67 60.5t-22.5 84q0 56 35.5 104t109.5 78t188 30q71 0 137.5 -13t116.5 -35l-54 -148q-49 22 -96.5 31.5t-95.5 9.5q-73 0 -107 -19.5t-34 -50.5
q0 -28 20.5 -44t66.5 -16h198v-151h-211q-34 0 -57 -7.5t-34.5 -22t-11.5 -35.5q0 -32 36.5 -52t119.5 -20q57 0 117.5 15.5t105.5 42.5l60 -146q-53 -30 -130 -48.5t-161 -18.5zM411 757l-101 152h170l63 -152h-132zM193 757l-100 152h170l62 -152h-132z" />
    <glyph glyph-name="Edieresis.ss01" horiz-adv-x="681" 
d="M381 -14q-115 0 -192.5 27.5t-116.5 76t-39 109.5q0 53 27.5 94t77.5 64.5t117 23.5l5 -46q-64 0 -108.5 22.5t-67 60.5t-22.5 84q0 56 35.5 104t109.5 78t188 30q71 0 137.5 -13t116.5 -35l-54 -148q-49 22 -96.5 31.5t-95.5 9.5q-73 0 -107 -19.5t-34 -50.5
q0 -28 20.5 -44t66.5 -16h198v-151h-211q-34 0 -57 -7.5t-34.5 -22t-11.5 -35.5q0 -32 36.5 -52t119.5 -20q57 0 117.5 15.5t105.5 42.5l60 -146q-53 -30 -130 -48.5t-161 -18.5zM474 756q-33 0 -56 21.5t-23 56.5t23 57t56 22t56 -22t23 -57t-23 -56.5t-56 -21.5zM262 756
q-33 0 -56 21.5t-23 56.5t23 57t56 22t56 -22t23 -57t-23 -56.5t-56 -21.5z" />
    <glyph glyph-name="Edotaccent.ss01" horiz-adv-x="681" 
d="M381 -14q-115 0 -192.5 27.5t-116.5 76t-39 109.5q0 53 27.5 94t77.5 64.5t117 23.5l5 -46q-64 0 -108.5 22.5t-67 60.5t-22.5 84q0 56 35.5 104t109.5 78t188 30q71 0 137.5 -13t116.5 -35l-54 -148q-49 22 -96.5 31.5t-95.5 9.5q-73 0 -107 -19.5t-34 -50.5
q0 -28 20.5 -44t66.5 -16h198v-151h-211q-34 0 -57 -7.5t-34.5 -22t-11.5 -35.5q0 -32 36.5 -52t119.5 -20q57 0 117.5 15.5t105.5 42.5l60 -146q-53 -30 -130 -48.5t-161 -18.5zM368 755q-43 0 -71 27.5t-28 71.5q0 43 28 70.5t71 27.5t71 -27.5t28 -70.5q0 -44 -28 -71.5
t-71 -27.5z" />
    <glyph glyph-name="uni1EB8.ss01" horiz-adv-x="681" 
d="M381 -14q-115 0 -192.5 27.5t-116.5 76t-39 109.5q0 53 27.5 94t77.5 64.5t117 23.5l5 -46q-64 0 -108.5 22.5t-67 60.5t-22.5 84q0 56 35.5 104t109.5 78t188 30q71 0 137.5 -13t116.5 -35l-54 -148q-49 22 -96.5 31.5t-95.5 9.5q-73 0 -107 -19.5t-34 -50.5
q0 -28 20.5 -44t66.5 -16h198v-151h-211q-34 0 -57 -7.5t-34.5 -22t-11.5 -35.5q0 -32 36.5 -52t119.5 -20q57 0 117.5 15.5t105.5 42.5l60 -146q-53 -30 -130 -48.5t-161 -18.5zM368 -218q-33 0 -56 21t-23 56t23 57t56 22t56 -22t23 -57t-23 -56t-56 -21z" />
    <glyph glyph-name="Egrave.ss01" horiz-adv-x="681" 
d="M381 -14q-115 0 -192.5 27.5t-116.5 76t-39 109.5q0 53 27.5 94t77.5 64.5t117 23.5l5 -46q-64 0 -108.5 22.5t-67 60.5t-22.5 84q0 56 35.5 104t109.5 78t188 30q71 0 137.5 -13t116.5 -35l-54 -148q-49 22 -96.5 31.5t-95.5 9.5q-73 0 -107 -19.5t-34 -50.5
q0 -28 20.5 -44t66.5 -16h198v-151h-211q-34 0 -57 -7.5t-34.5 -22t-11.5 -35.5q0 -32 36.5 -52t119.5 -20q57 0 117.5 15.5t105.5 42.5l60 -146q-53 -30 -130 -48.5t-161 -18.5zM330 757l-188 152h190l134 -152h-136z" />
    <glyph glyph-name="uni1EBA.ss01" horiz-adv-x="681" 
d="M381 -14q-115 0 -192.5 27.5t-116.5 76t-39 109.5q0 53 27.5 94t77.5 64.5t117 23.5l5 -46q-64 0 -108.5 22.5t-67 60.5t-22.5 84q0 56 35.5 104t109.5 78t188 30q71 0 137.5 -13t116.5 -35l-54 -148q-49 22 -96.5 31.5t-95.5 9.5q-73 0 -107 -19.5t-34 -50.5
q0 -28 20.5 -44t66.5 -16h198v-151h-211q-34 0 -57 -7.5t-34.5 -22t-11.5 -35.5q0 -32 36.5 -52t119.5 -20q57 0 117.5 15.5t105.5 42.5l60 -146q-53 -30 -130 -48.5t-161 -18.5zM404 747l-58 58q29 14 39 28.5t10 29.5q0 19 -12.5 29.5t-32.5 10.5q-29 0 -58 -20l-39 74
q24 18 55 27.5t63 9.5q58 0 94.5 -32t36.5 -83q0 -46 -25 -78t-73 -54z" />
    <glyph glyph-name="uni0206.ss01" horiz-adv-x="681" 
d="M381 -14q-115 0 -192.5 27.5t-116.5 76t-39 109.5q0 53 27.5 94t77.5 64.5t117 23.5l5 -46q-64 0 -108.5 22.5t-67 60.5t-22.5 84q0 56 35.5 104t109.5 78t188 30q71 0 137.5 -13t116.5 -35l-54 -148q-49 22 -96.5 31.5t-95.5 9.5q-73 0 -107 -19.5t-34 -50.5
q0 -28 20.5 -44t66.5 -16h198v-151h-211q-34 0 -57 -7.5t-34.5 -22t-11.5 -35.5q0 -32 36.5 -52t119.5 -20q57 0 117.5 15.5t105.5 42.5l60 -146q-53 -30 -130 -48.5t-161 -18.5zM172 757q3 75 57.5 118t138.5 43t138.5 -43t57.5 -118h-116q-1 30 -24 48t-56 18t-55.5 -18
t-24.5 -48h-116z" />
    <glyph glyph-name="Emacron.ss01" horiz-adv-x="681" 
d="M381 -14q-115 0 -192.5 27.5t-116.5 76t-39 109.5q0 53 27.5 94t77.5 64.5t117 23.5l5 -46q-64 0 -108.5 22.5t-67 60.5t-22.5 84q0 56 35.5 104t109.5 78t188 30q71 0 137.5 -13t116.5 -35l-54 -148q-49 22 -96.5 31.5t-95.5 9.5q-73 0 -107 -19.5t-34 -50.5
q0 -28 20.5 -44t66.5 -16h198v-151h-211q-34 0 -57 -7.5t-34.5 -22t-11.5 -35.5q0 -32 36.5 -52t119.5 -20q57 0 117.5 15.5t105.5 42.5l60 -146q-53 -30 -130 -48.5t-161 -18.5zM171 782v102h394v-102h-394z" />
    <glyph glyph-name="uni1E16.ss01" horiz-adv-x="681" 
d="M381 -14q-115 0 -192.5 27.5t-116.5 76t-39 109.5q0 53 27.5 94t77.5 64.5t117 23.5l5 -46q-64 0 -108.5 22.5t-67 60.5t-22.5 84q0 56 35.5 104t109.5 78t188 30q71 0 137.5 -13t116.5 -35l-54 -148q-49 22 -96.5 31.5t-95.5 9.5q-73 0 -107 -19.5t-34 -50.5
q0 -28 20.5 -44t66.5 -16h198v-151h-211q-34 0 -57 -7.5t-34.5 -22t-11.5 -35.5q0 -32 36.5 -52t119.5 -20q57 0 117.5 15.5t105.5 42.5l60 -146q-53 -30 -130 -48.5t-161 -18.5zM171 769v98h394v-98h-394zM273 929l106 125h186l-161 -125h-131z" />
    <glyph glyph-name="uni1E14.ss01" horiz-adv-x="681" 
d="M381 -14q-115 0 -192.5 27.5t-116.5 76t-39 109.5q0 53 27.5 94t77.5 64.5t117 23.5l5 -46q-64 0 -108.5 22.5t-67 60.5t-22.5 84q0 56 35.5 104t109.5 78t188 30q71 0 137.5 -13t116.5 -35l-54 -148q-49 22 -96.5 31.5t-95.5 9.5q-73 0 -107 -19.5t-34 -50.5
q0 -28 20.5 -44t66.5 -16h198v-151h-211q-34 0 -57 -7.5t-34.5 -22t-11.5 -35.5q0 -32 36.5 -52t119.5 -20q57 0 117.5 15.5t105.5 42.5l60 -146q-53 -30 -130 -48.5t-161 -18.5zM171 769v98h394v-98h-394zM333 929l-162 125h186l106 -125h-130z" />
    <glyph glyph-name="Eogonek.ss01" horiz-adv-x="681" 
d="M548 -236q-70 0 -109 32.5t-39 84.5q0 46 27 84t80 66l6 -31q-32 -6 -65 -10t-67 -4q-115 0 -192.5 27.5t-116.5 76t-39 109.5q0 53 27.5 94t77.5 64.5t117 23.5l5 -46q-64 0 -108.5 22.5t-67 60.5t-22.5 84q0 56 35.5 104t109.5 78t188 30q71 0 137.5 -13t116.5 -35
l-54 -148q-49 22 -96.5 31.5t-95.5 9.5q-73 0 -107 -19.5t-34 -50.5q0 -28 20.5 -44t66.5 -16h198v-151h-211q-34 0 -57 -7.5t-34.5 -22t-11.5 -35.5q0 -32 36.5 -52t119.5 -20q57 0 117.5 15.5t105.5 42.5l60 -146q-58 -29 -92.5 -56.5t-49.5 -51.5t-15 -44q0 -21 14 -34
t41 -13q17 0 33 4.5t27 10.5l25 -82q-19 -10 -48 -16.5t-59 -6.5z" />
    <glyph glyph-name="uni1EBC.ss01" horiz-adv-x="681" 
d="M381 -14q-115 0 -192.5 27.5t-116.5 76t-39 109.5q0 53 27.5 94t77.5 64.5t117 23.5l5 -46q-64 0 -108.5 22.5t-67 60.5t-22.5 84q0 56 35.5 104t109.5 78t188 30q71 0 137.5 -13t116.5 -35l-54 -148q-49 22 -96.5 31.5t-95.5 9.5q-73 0 -107 -19.5t-34 -50.5
q0 -28 20.5 -44t66.5 -16h198v-151h-211q-34 0 -57 -7.5t-34.5 -22t-11.5 -35.5q0 -32 36.5 -52t119.5 -20q57 0 117.5 15.5t105.5 42.5l60 -146q-53 -30 -130 -48.5t-161 -18.5zM446 750q-27 0 -47.5 9.5t-37.5 21.5t-31 21.5t-28 9.5q-20 0 -32 -14t-14 -39h-93
q2 73 35.5 116t91.5 43q27 0 48 -9t37.5 -21.5t31 -21.5t27.5 -9q20 0 32.5 13.5t13.5 36.5h93q-1 -70 -35 -113.5t-92 -43.5z" />
    <glyph glyph-name="F.ss01" horiz-adv-x="620" 
d="M64 0v414q0 143 89.5 221.5t249.5 78.5q61 0 114.5 -12t91.5 -34l-58 -152q-31 18 -66 26t-67 8q-75 0 -115.5 -33t-40.5 -100v-417h-198zM187 240v153h344v-153h-344z" />
    <glyph glyph-name="G.ss01" horiz-adv-x="770" 
d="M389 -14q-72 0 -136 23t-113.5 68.5t-77.5 112t-28 153.5q0 82 29 150t81 117.5t123.5 76.5t156.5 27q99 0 177 -33t129 -95l-126 -114q-36 39 -77.5 58.5t-92.5 19.5q-45 0 -82 -14t-63 -41t-40.5 -65t-14.5 -86q0 -50 14.5 -87.5t39.5 -62t57.5 -36.5t68.5 -12
q51 0 95 21t69 63l84 -64q-35 -96 -106 -138t-167 -42zM577 0v91l-38 22v252h175v-365h-137z" />
    <glyph glyph-name="Gbreve.ss01" horiz-adv-x="770" 
d="M389 -14q-72 0 -136 23t-113.5 68.5t-77.5 112t-28 153.5q0 82 29 150t81 117.5t123.5 76.5t156.5 27q99 0 177 -33t129 -95l-126 -114q-36 39 -77.5 58.5t-92.5 19.5q-45 0 -82 -14t-63 -41t-40.5 -65t-14.5 -86q0 -50 14.5 -87.5t39.5 -62t57.5 -36.5t68.5 -12
q51 0 95 21t69 63l84 -64q-35 -96 -106 -138t-167 -42zM577 0v91l-38 22v252h175v-365h-137zM420 749q-84 0 -138.5 43t-57.5 118h116q2 -31 24.5 -48.5t55.5 -17.5t56 17.5t24 48.5h116q-3 -75 -57.5 -118t-138.5 -43z" />
    <glyph glyph-name="Gcaron.ss01" horiz-adv-x="770" 
d="M389 -14q-72 0 -136 23t-113.5 68.5t-77.5 112t-28 153.5q0 82 29 150t81 117.5t123.5 76.5t156.5 27q99 0 177 -33t129 -95l-126 -114q-36 39 -77.5 58.5t-92.5 19.5q-45 0 -82 -14t-63 -41t-40.5 -65t-14.5 -86q0 -50 14.5 -87.5t39.5 -62t57.5 -36.5t68.5 -12
q51 0 95 21t69 63l84 -64q-35 -96 -106 -138t-167 -42zM577 0v91l-38 22v252h175v-365h-137zM338 758l-130 152h126l141 -124h-110l141 124h126l-130 -152h-164z" />
    <glyph glyph-name="Gcircumflex.ss01" horiz-adv-x="770" 
d="M389 -14q-72 0 -136 23t-113.5 68.5t-77.5 112t-28 153.5q0 82 29 150t81 117.5t123.5 76.5t156.5 27q99 0 177 -33t129 -95l-126 -114q-36 39 -77.5 58.5t-92.5 19.5q-45 0 -82 -14t-63 -41t-40.5 -65t-14.5 -86q0 -50 14.5 -87.5t39.5 -62t57.5 -36.5t68.5 -12
q51 0 95 21t69 63l84 -64q-35 -96 -106 -138t-167 -42zM577 0v91l-38 22v252h175v-365h-137zM208 758l130 152h164l130 -152h-126l-141 125h110l-141 -125h-126z" />
    <glyph glyph-name="uni0122.ss01" horiz-adv-x="770" 
d="M389 -14q-72 0 -136 23t-113.5 68.5t-77.5 112t-28 153.5q0 82 29 150t81 117.5t123.5 76.5t156.5 27q99 0 177 -33t129 -95l-126 -114q-36 39 -77.5 58.5t-92.5 19.5q-45 0 -82 -14t-63 -41t-40.5 -65t-14.5 -86q0 -50 14.5 -87.5t39.5 -62t57.5 -36.5t68.5 -12
q51 0 95 21t69 63l84 -64q-35 -96 -106 -138t-167 -42zM577 0v91l-38 22v252h175v-365h-137zM343 -266l44 136l21 -63q-39 0 -59 18t-20 48t21 48.5t58 18.5t58 -18.5t21 -48.5q0 -13 -4 -30.5t-17 -41.5l-37 -67h-86z" />
    <glyph glyph-name="Gdotaccent.ss01" horiz-adv-x="770" 
d="M389 -14q-72 0 -136 23t-113.5 68.5t-77.5 112t-28 153.5q0 82 29 150t81 117.5t123.5 76.5t156.5 27q99 0 177 -33t129 -95l-126 -114q-36 39 -77.5 58.5t-92.5 19.5q-45 0 -82 -14t-63 -41t-40.5 -65t-14.5 -86q0 -50 14.5 -87.5t39.5 -62t57.5 -36.5t68.5 -12
q51 0 95 21t69 63l84 -64q-35 -96 -106 -138t-167 -42zM577 0v91l-38 22v252h175v-365h-137zM420 756q-43 0 -71 27.5t-28 71.5q0 43 28 70.5t71 27.5t71 -27.5t28 -70.5q0 -44 -28 -71.5t-71 -27.5z" />
    <glyph glyph-name="uni1E20.ss01" horiz-adv-x="770" 
d="M389 -14q-72 0 -136 23t-113.5 68.5t-77.5 112t-28 153.5q0 82 29 150t81 117.5t123.5 76.5t156.5 27q99 0 177 -33t129 -95l-126 -114q-36 39 -77.5 58.5t-92.5 19.5q-45 0 -82 -14t-63 -41t-40.5 -65t-14.5 -86q0 -50 14.5 -87.5t39.5 -62t57.5 -36.5t68.5 -12
q51 0 95 21t69 63l84 -64q-35 -96 -106 -138t-167 -42zM577 0v91l-38 22v252h175v-365h-137zM223 783v102h394v-102h-394z" />
    <glyph glyph-name="uni01E4.ss01" horiz-adv-x="818" 
d="M395 201v121h405v-121h-405zM389 -14q-72 0 -136 23t-113.5 68.5t-77.5 112t-28 153.5q0 82 29 150t81 117.5t123.5 76.5t156.5 27q99 0 177 -33t129 -95l-126 -114q-36 39 -77.5 58.5t-92.5 19.5q-45 0 -82 -14t-63 -41t-40.5 -65t-14.5 -86q0 -50 14.5 -87.5t39.5 -62
t57.5 -36.5t68.5 -12q51 0 95 21t69 63l84 -64q-35 -96 -106 -138t-167 -42zM577 0v91l-38 22v252h175v-365h-137z" />
    <glyph glyph-name="I.ss01" horiz-adv-x="499" 
d="M151 18v665h198v-665h-198zM37 0v153h425v-153h-425zM37 547v153h425v-153h-425z" />
    <glyph glyph-name="IJ.ss01" horiz-adv-x="727" 
d="M328 -110q-85 0 -157 22t-124 59l72 144q49 -33 101.5 -49t100.5 -16q72 0 107.5 39t35.5 122v489h198v-476q0 -108 -41.5 -182.5t-117 -113t-175.5 -38.5zM64 229v471h198v-471h-198z" />
    <glyph glyph-name="Iacute.ss01" horiz-adv-x="499" 
d="M151 18v665h198v-665h-198zM37 0v153h425v-153h-425zM37 547v153h425v-153h-425zM152 757l134 152h190l-188 -152h-136z" />
    <glyph glyph-name="Iacute_J.loclNLD.ss01" horiz-adv-x="727" 
d="M328 -109q-85 0 -157 22.5t-124 59.5l72 143q49 -31 101.5 -47.5t98.5 -16.5q73 0 109 39t36 123v486h198v-475q0 -108 -41.5 -182.5t-117 -113t-175.5 -38.5zM64 229v471h198v-471h-198zM74 757l133 152h185l-189 -152h-129zM473 757l133 152h185l-189 -152h-129z" />
    <glyph glyph-name="Ibreve.ss01" horiz-adv-x="499" 
d="M151 18v665h198v-665h-198zM37 0v153h425v-153h-425zM37 547v153h425v-153h-425zM250 748q-84 0 -138.5 43t-57.5 118h116q2 -31 24.5 -48.5t55.5 -17.5t56 17.5t24 48.5h116q-3 -75 -57.5 -118t-138.5 -43z" />
    <glyph glyph-name="Icircumflex.ss01" horiz-adv-x="499" 
d="M151 18v665h198v-665h-198zM37 0v153h425v-153h-425zM37 547v153h425v-153h-425zM38 757l130 152h164l130 -152h-126l-141 125h110l-141 -125h-126z" />
    <glyph glyph-name="uni0208.ss01" horiz-adv-x="499" 
d="M151 18v665h198v-665h-198zM37 0v153h425v-153h-425zM37 547v153h425v-153h-425zM293 757l-101 152h170l63 -152h-132zM75 757l-100 152h170l62 -152h-132z" />
    <glyph glyph-name="Idieresis.ss01" horiz-adv-x="499" 
d="M151 18v665h198v-665h-198zM37 0v153h425v-153h-425zM37 547v153h425v-153h-425zM356 756q-33 0 -56 21.5t-23 56.5t23 57t56 22t56 -22t23 -57t-23 -56.5t-56 -21.5zM144 756q-33 0 -56 21.5t-23 56.5t23 57t56 22t56 -22t23 -57t-23 -56.5t-56 -21.5z" />
    <glyph glyph-name="uni1E2E.ss01" horiz-adv-x="499" 
d="M151 18v665h198v-665h-198zM37 0v153h425v-153h-425zM37 547v153h425v-153h-425zM352 755q-32 0 -53.5 20.5t-21.5 53.5t21.5 54t53.5 21t53.5 -21t21.5 -54t-21.5 -53.5t-53.5 -20.5zM148 755q-31 0 -53 20.5t-22 53.5t22 54t53 21q32 0 54 -21t22 -54t-22 -53.5
t-54 -20.5zM155 928l106 125h186l-161 -125h-131z" />
    <glyph glyph-name="Idotaccent.ss01" horiz-adv-x="499" 
d="M151 18v665h198v-665h-198zM37 0v153h425v-153h-425zM37 547v153h425v-153h-425zM250 755q-43 0 -71 27.5t-28 71.5q0 43 28 70.5t71 27.5t71 -27.5t28 -70.5q0 -44 -28 -71.5t-71 -27.5z" />
    <glyph glyph-name="uni1ECA.ss01" horiz-adv-x="499" 
d="M151 18v665h198v-665h-198zM37 0v153h425v-153h-425zM37 547v153h425v-153h-425zM250 -218q-33 0 -56 21t-23 56t23 57t56 22t56 -22t23 -57t-23 -56t-56 -21z" />
    <glyph glyph-name="Igrave.ss01" horiz-adv-x="499" 
d="M151 18v665h198v-665h-198zM37 0v153h425v-153h-425zM37 547v153h425v-153h-425zM212 757l-188 152h190l134 -152h-136z" />
    <glyph glyph-name="uni1EC8.ss01" horiz-adv-x="499" 
d="M151 18v665h198v-665h-198zM37 0v153h425v-153h-425zM37 547v153h425v-153h-425zM286 747l-58 58q29 14 39 28.5t10 29.5q0 19 -12.5 29.5t-32.5 10.5q-29 0 -58 -20l-39 74q24 18 55 27.5t63 9.5q58 0 94.5 -32t36.5 -83q0 -46 -25 -78t-73 -54z" />
    <glyph glyph-name="uni020A.ss01" horiz-adv-x="499" 
d="M151 18v665h198v-665h-198zM37 0v153h425v-153h-425zM37 547v153h425v-153h-425zM54 757q3 75 57.5 118t138.5 43t138.5 -43t57.5 -118h-116q-1 30 -24 48t-56 18t-55.5 -18t-24.5 -48h-116z" />
    <glyph glyph-name="Imacron.ss01" horiz-adv-x="499" 
d="M151 18v665h198v-665h-198zM37 0v153h425v-153h-425zM37 547v153h425v-153h-425zM53 782v102h394v-102h-394z" />
    <glyph glyph-name="Iogonek.ss01" horiz-adv-x="499" 
d="M151 18v665h198v-665h-198zM37 0v153h425v-153h-425zM37 547v153h425v-153h-425zM298 -236q-59 0 -95.5 32t-36.5 86q0 51 33.5 93.5t96.5 70.5l53 -46q-39 -28 -53 -52t-14 -49q0 -20 11.5 -32.5t28.5 -12.5q8 0 16.5 3t15.5 8l23 -79q-31 -22 -79 -22z" />
    <glyph glyph-name="Itilde.ss01" horiz-adv-x="499" 
d="M151 18v665h198v-665h-198zM37 0v153h425v-153h-425zM37 547v153h425v-153h-425zM328 750q-27 0 -47.5 9.5t-37.5 21.5t-31 21.5t-28 9.5q-20 0 -32 -14t-14 -39h-93q2 73 35.5 116t91.5 43q27 0 48 -9t37.5 -21.5t31 -21.5t27.5 -9q20 0 32.5 13.5t13.5 36.5h93
q-1 -70 -35 -113.5t-92 -43.5z" />
    <glyph glyph-name="J.ss01" horiz-adv-x="556" 
d="M222 -114q-77 0 -139 26.5t-103 76.5l107 128q28 -36 57.5 -54.5t62.5 -18.5q89 0 89 102v401h-242v153h438v-542q0 -137 -69 -204.5t-201 -67.5z" />
    <glyph glyph-name="Jcircumflex.ss01" horiz-adv-x="556" 
d="M222 -114q-77 0 -139 26.5t-103 76.5l107 128q28 -36 57.5 -54.5t62.5 -18.5q89 0 89 102v401h-242v153h438v-542q0 -137 -69 -204.5t-201 -67.5zM61 757l130 152h164l130 -152h-126l-141 125h110l-141 -125h-126z" />
    <glyph glyph-name="uni01C7.ss01" horiz-adv-x="1197" 
d="M70 0v700h198v-543h334v-157h-532zM862 -114q-77 0 -139 26.5t-103 76.5l107 128q28 -36 57.5 -54.5t62.5 -18.5q89 0 89 102v401h-242v153h438v-542q0 -137 -69 -204.5t-201 -67.5z" />
    <glyph glyph-name="M.ss01" horiz-adv-x="1217" 
d="M889 714q123 0 193 -72.5t70 -213.5v-428h-198v422q0 65 -33.5 96.5t-87.5 31.5q-56 0 -92 -33t-36 -105v-412h-198v422q0 65 -31.5 96.5t-82.5 31.5q-36 0 -64.5 -14.5t-44.5 -45t-16 -78.5v-412h-198v700h192v-164l-28 33q26 69 84.5 107t143.5 38q89 0 148.5 -40.5
t83.5 -117.5l-59 6q31 75 98.5 113.5t155.5 38.5z" />
    <glyph glyph-name="uni1E42.ss01" horiz-adv-x="1217" 
d="M889 714q123 0 193 -72.5t70 -213.5v-428h-198v422q0 65 -33.5 96.5t-87.5 31.5q-56 0 -92 -33t-36 -105v-412h-198v422q0 65 -31.5 96.5t-82.5 31.5q-36 0 -64.5 -14.5t-44.5 -45t-16 -78.5v-412h-198v700h192v-164l-28 33q26 69 84.5 107t143.5 38q89 0 148.5 -40.5
t83.5 -117.5l-59 6q31 75 98.5 113.5t155.5 38.5zM606 -218q-33 0 -56 21t-23 56t23 57t56 22t56 -22t23 -57t-23 -56t-56 -21z" />
    <glyph glyph-name="N.ss01" horiz-adv-x="795" 
d="M468 714q124 0 193.5 -79t69.5 -227v-408h-198v402q0 76 -35 112t-92 36q-59 0 -98.5 -38t-39.5 -120v-392h-198v700h192v-178l-35 36q32 76 93 116t148 40z" />
    <glyph glyph-name="uni01CA.ss01" horiz-adv-x="1352" 
d="M468 714q124 0 193.5 -79t69.5 -227v-408h-198v402q0 76 -35 112t-92 36q-59 0 -98.5 -38t-39.5 -120v-392h-198v700h192v-178l-35 36q32 76 93 116t148 40zM1017 -114q-77 0 -139 26.5t-103 76.5l107 128q28 -36 57.5 -54.5t62.5 -18.5q89 0 89 102v401h-242v153h438
v-542q0 -137 -69 -204.5t-201 -67.5z" />
    <glyph glyph-name="Nacute.ss01" horiz-adv-x="795" 
d="M468 714q124 0 193.5 -79t69.5 -227v-408h-198v402q0 76 -35 112t-92 36q-59 0 -98.5 -38t-39.5 -120v-392h-198v700h192v-178l-35 36q32 76 93 116t148 40zM303 757l134 152h190l-188 -152h-136z" />
    <glyph glyph-name="Ncaron.ss01" horiz-adv-x="795" 
d="M468 714q124 0 193.5 -79t69.5 -227v-408h-198v402q0 76 -35 112t-92 36q-59 0 -98.5 -38t-39.5 -120v-392h-198v700h192v-178l-35 36q32 76 93 116t148 40zM319 757l-130 152h126l141 -124h-110l141 124h126l-130 -152h-164z" />
    <glyph glyph-name="uni0145.ss01" horiz-adv-x="795" 
d="M468 714q124 0 193.5 -79t69.5 -227v-408h-198v402q0 76 -35 112t-92 36q-59 0 -98.5 -38t-39.5 -120v-392h-198v700h192v-178l-35 36q32 76 93 116t148 40zM335 -268l44 136l21 -63q-39 0 -59 18t-20 48t21 48.5t58 18.5t58 -18.5t21 -48.5q0 -13 -4 -30.5t-17 -41.5
l-37 -67h-86z" />
    <glyph glyph-name="uni1E44.ss01" horiz-adv-x="795" 
d="M468 714q124 0 193.5 -79t69.5 -227v-408h-198v402q0 76 -35 112t-92 36q-59 0 -98.5 -38t-39.5 -120v-392h-198v700h192v-178l-35 36q32 76 93 116t148 40zM401 755q-43 0 -71 27.5t-28 71.5q0 43 28 70.5t71 27.5t71 -27.5t28 -70.5q0 -44 -28 -71.5t-71 -27.5z" />
    <glyph glyph-name="uni1E46.ss01" horiz-adv-x="795" 
d="M468 714q124 0 193.5 -79t69.5 -227v-408h-198v402q0 76 -35 112t-92 36q-59 0 -98.5 -38t-39.5 -120v-392h-198v700h192v-178l-35 36q32 76 93 116t148 40zM400 -218q-33 0 -56 21t-23 56t23 57t56 22t56 -22t23 -57t-23 -56t-56 -21z" />
    <glyph glyph-name="Eng.ss01" horiz-adv-x="795" 
d="M468 714q124 0 193.5 -79t69.5 -227v-339q0 -137 -70 -204.5t-201 -67.5q-57 0 -105.5 14.5t-87.5 44.5l91 139q19 -17 41 -26t46 -9q88 0 88 101v341q0 76 -35 112t-92 36q-59 0 -98.5 -38t-39.5 -120v-392h-198v700h192v-178l-35 36q32 76 93 116t148 40z" />
    <glyph glyph-name="uni01CB.ss01" horiz-adv-x="1115" 
d="M468 714q124 0 193.5 -79t69.5 -227v-408h-198v402q0 76 -35 112t-92 36q-59 0 -98.5 -38t-39.5 -120v-392h-198v700h192v-178l-35 36q32 76 93 116t148 40zM833 -203q-38 0 -72.5 7.5t-59.5 20.5l48 135q26 -16 59 -16q25 0 40.5 17t15.5 54v527h190v-528
q0 -99 -58 -158t-163 -59zM959 602q-52 0 -84 29t-32 72t32 72t84 29t84 -27.5t32 -70.5q0 -45 -31.5 -74.5t-84.5 -29.5z" />
    <glyph glyph-name="uni1E48.ss01" horiz-adv-x="795" 
d="M468 714q124 0 193.5 -79t69.5 -227v-408h-198v402q0 76 -35 112t-92 36q-59 0 -98.5 -38t-39.5 -120v-392h-198v700h192v-178l-35 36q32 76 93 116t148 40zM203 -187v102h394v-102h-394z" />
    <glyph glyph-name="Ntilde.ss01" horiz-adv-x="795" 
d="M468 714q124 0 193.5 -79t69.5 -227v-408h-198v402q0 76 -35 112t-92 36q-59 0 -98.5 -38t-39.5 -120v-392h-198v700h192v-178l-35 36q32 76 93 116t148 40zM479 750q-27 0 -47.5 9.5t-37.5 21.5t-31 21.5t-28 9.5q-20 0 -32 -14t-14 -39h-93q2 73 35.5 116t91.5 43
q27 0 48 -9t37.5 -21.5t31 -21.5t27.5 -9q20 0 32.5 13.5t13.5 36.5h93q-1 -70 -35 -113.5t-92 -43.5z" />
    <glyph glyph-name="Q.ss01" horiz-adv-x="846" 
d="M324 -135v156l7 58v218h183v-218l8 -58v-156h-198zM423 -14q-84 0 -155 27t-123.5 76.5t-81.5 115.5t-29 145t29 145t81.5 115.5t123.5 76.5t155 27q85 0 155.5 -27t122.5 -76.5t81.5 -115.5t29.5 -145t-29.5 -145t-81.5 -115t-122.5 -76.5t-155.5 -27.5zM423 150
q44 0 78.5 13.5t59 39.5t38 63.5t13.5 83.5t-14.5 82.5t-40 63t-60 40.5t-74.5 14t-74.5 -14t-60 -40.5t-40 -63t-14.5 -82.5t13.5 -83.5t38 -63.5t59 -39.5t78.5 -13.5z" />
    <glyph glyph-name="uni018F.ss01" horiz-adv-x="818" 
d="M409 -14q-91 0 -164.5 32.5t-124 92t-72.5 141.5l543 218l41 -117l-447 -182l63 122q2 -73 41 -115t120 -42q42 0 74 13t54.5 37.5t34.5 58.5t12 77v36q0 42 -14.5 77.5t-40 61t-60.5 39.5t-77 14q-31 0 -66.5 -9t-68 -27.5t-56.5 -45.5l-117 124q33 35 82 62.5
t107.5 43.5t120.5 16q85 0 156.5 -26.5t124 -75.5t80.5 -115.5t28 -146.5t-28 -147t-78 -115.5t-118.5 -75t-149.5 -26.5z" />
    <glyph glyph-name="T.ss01" horiz-adv-x="660" 
d="M52 480l-66 144q74 45 162.5 67.5t181.5 22.5t181.5 -22.5t162.5 -67.5l-66 -144q-63 36 -130.5 54.5t-147.5 18.5t-147.5 -18.5t-130.5 -54.5zM231 0v619h198v-619h-198z" />
    <glyph glyph-name="Tbar.ss01" horiz-adv-x="660" 
d="M52 480l-66 144q74 45 162.5 67.5t181.5 22.5t181.5 -22.5t162.5 -67.5l-66 -144q-63 36 -130.5 54.5t-147.5 18.5t-147.5 -18.5t-130.5 -54.5zM231 0v619h198v-619h-198zM104 247v122h450v-122h-450z" />
    <glyph glyph-name="Tcaron.ss01" horiz-adv-x="660" 
d="M52 480l-66 144q74 45 162.5 67.5t181.5 22.5t181.5 -22.5t162.5 -67.5l-66 -144q-63 36 -130.5 54.5t-147.5 18.5t-147.5 -18.5t-130.5 -54.5zM231 0v619h198v-619h-198zM252 758l-130 152h126l141 -124h-110l141 124h126l-130 -152h-164z" />
    <glyph glyph-name="uni0162.ss01" horiz-adv-x="660" 
d="M52 480l-66 144q74 45 162.5 67.5t181.5 22.5t181.5 -22.5t162.5 -67.5l-66 -144q-63 36 -130.5 54.5t-147.5 18.5t-147.5 -18.5t-130.5 -54.5zM231 0v619h198v-619h-198zM293 -236q-25 0 -51.5 6t-43.5 15l26 75q13 -6 28.5 -10t33.5 -4q27 0 38.5 8t11.5 20t-10.5 18.5
t-34.5 6.5h-37l26 110h99l-14 -60q46 -5 66 -29t20 -52q0 -48 -43 -76t-115 -28z" />
    <glyph glyph-name="uni021A.ss01" horiz-adv-x="660" 
d="M52 480l-66 144q74 45 162.5 67.5t181.5 22.5t181.5 -22.5t162.5 -67.5l-66 -144q-63 36 -130.5 54.5t-147.5 18.5t-147.5 -18.5t-130.5 -54.5zM231 0v619h198v-619h-198zM265 -268l44 136l21 -63q-39 0 -59 18t-20 48t21 48.5t58 18.5t58 -18.5t21 -48.5q0 -13 -4 -30.5
t-17 -41.5l-37 -67h-86z" />
    <glyph glyph-name="uni1E6C.ss01" horiz-adv-x="660" 
d="M52 480l-66 144q74 45 162.5 67.5t181.5 22.5t181.5 -22.5t162.5 -67.5l-66 -144q-63 36 -130.5 54.5t-147.5 18.5t-147.5 -18.5t-130.5 -54.5zM231 0v619h198v-619h-198zM330 -218q-33 0 -56 21t-23 56t23 57t56 22t56 -22t23 -57t-23 -56t-56 -21z" />
    <glyph glyph-name="uni1E6E.ss01" horiz-adv-x="660" 
d="M52 480l-66 144q74 45 162.5 67.5t181.5 22.5t181.5 -22.5t162.5 -67.5l-66 -144q-63 36 -130.5 54.5t-147.5 18.5t-147.5 -18.5t-130.5 -54.5zM231 0v619h198v-619h-198zM133 -187v102h394v-102h-394z" />
    <glyph glyph-name="U.ss01" horiz-adv-x="791" 
d="M326 -14q-123 0 -192.5 79t-69.5 227v408h198v-402q0 -76 34.5 -112t90.5 -36q57 0 96.5 38t39.5 120v392h198v-700h-192v178l35 -36q-32 -76 -92.5 -116t-145.5 -40z" />
    <glyph glyph-name="Uacute.ss01" horiz-adv-x="791" 
d="M326 -14q-123 0 -192.5 79t-69.5 227v408h198v-402q0 -76 34.5 -112t90.5 -36q57 0 96.5 38t39.5 120v392h198v-700h-192v178l35 -36q-32 -76 -92.5 -116t-145.5 -40zM293 757l134 152h190l-188 -152h-136z" />
    <glyph glyph-name="Ubreve.ss01" horiz-adv-x="791" 
d="M326 -14q-123 0 -192.5 79t-69.5 227v408h198v-402q0 -76 34.5 -112t90.5 -36q57 0 96.5 38t39.5 120v392h198v-700h-192v178l35 -36q-32 -76 -92.5 -116t-145.5 -40zM391 748q-84 0 -138.5 43t-57.5 118h116q2 -31 24.5 -48.5t55.5 -17.5t56 17.5t24 48.5h116
q-3 -75 -57.5 -118t-138.5 -43z" />
    <glyph glyph-name="uni01D3.ss01" horiz-adv-x="791" 
d="M326 -14q-123 0 -192.5 79t-69.5 227v408h198v-402q0 -76 34.5 -112t90.5 -36q57 0 96.5 38t39.5 120v392h198v-700h-192v178l35 -36q-32 -76 -92.5 -116t-145.5 -40zM309 757l-130 152h126l141 -124h-110l141 124h126l-130 -152h-164z" />
    <glyph glyph-name="Ucircumflex.ss01" horiz-adv-x="791" 
d="M326 -14q-123 0 -192.5 79t-69.5 227v408h198v-402q0 -76 34.5 -112t90.5 -36q57 0 96.5 38t39.5 120v392h198v-700h-192v178l35 -36q-32 -76 -92.5 -116t-145.5 -40zM179 757l130 152h164l130 -152h-126l-141 125h110l-141 -125h-126z" />
    <glyph glyph-name="uni0214.ss01" horiz-adv-x="791" 
d="M326 -14q-123 0 -192.5 79t-69.5 227v408h198v-402q0 -76 34.5 -112t90.5 -36q57 0 96.5 38t39.5 120v392h198v-700h-192v178l35 -36q-32 -76 -92.5 -116t-145.5 -40zM434 757l-101 152h170l63 -152h-132zM216 757l-100 152h170l62 -152h-132z" />
    <glyph glyph-name="Udieresis.ss01" horiz-adv-x="791" 
d="M326 -14q-123 0 -192.5 79t-69.5 227v408h198v-402q0 -76 34.5 -112t90.5 -36q57 0 96.5 38t39.5 120v392h198v-700h-192v178l35 -36q-32 -76 -92.5 -116t-145.5 -40zM497 756q-33 0 -56 21.5t-23 56.5t23 57t56 22t56 -22t23 -57t-23 -56.5t-56 -21.5zM285 756
q-33 0 -56 21.5t-23 56.5t23 57t56 22t56 -22t23 -57t-23 -56.5t-56 -21.5z" />
    <glyph glyph-name="uni1EE4.ss01" horiz-adv-x="791" 
d="M326 -14q-123 0 -192.5 79t-69.5 227v408h198v-402q0 -76 34.5 -112t90.5 -36q57 0 96.5 38t39.5 120v392h198v-700h-192v178l35 -36q-32 -76 -92.5 -116t-145.5 -40zM391 -218q-33 0 -56 21t-23 56t23 57t56 22t56 -22t23 -57t-23 -56t-56 -21z" />
    <glyph glyph-name="Ugrave.ss01" horiz-adv-x="791" 
d="M326 -14q-123 0 -192.5 79t-69.5 227v408h198v-402q0 -76 34.5 -112t90.5 -36q57 0 96.5 38t39.5 120v392h198v-700h-192v178l35 -36q-32 -76 -92.5 -116t-145.5 -40zM353 757l-188 152h190l134 -152h-136z" />
    <glyph glyph-name="uni1EE6.ss01" horiz-adv-x="791" 
d="M326 -14q-123 0 -192.5 79t-69.5 227v408h198v-402q0 -76 34.5 -112t90.5 -36q57 0 96.5 38t39.5 120v392h198v-700h-192v178l35 -36q-32 -76 -92.5 -116t-145.5 -40zM427 747l-58 58q29 14 39 28.5t10 29.5q0 19 -12.5 29.5t-32.5 10.5q-29 0 -58 -20l-39 74
q24 18 55 27.5t63 9.5q58 0 94.5 -32t36.5 -83q0 -46 -25 -78t-73 -54z" />
    <glyph glyph-name="Uhorn.ss01" horiz-adv-x="791" 
d="M326 -14q-123 0 -192.5 79t-69.5 227v408h198v-402q0 -76 34.5 -112t90.5 -36q57 0 96.5 38t39.5 120v392h198v-700h-192v178l35 -36q-32 -76 -92.5 -116t-145.5 -40zM608 580v120h34q24 0 40.5 17.5t16.5 45.5q0 17 -5.5 32.5t-14.5 25.5l110 39q16 -21 25.5 -47
t9.5 -58q0 -83 -50 -129t-139 -46h-27z" />
    <glyph glyph-name="uni1EE8.ss01" horiz-adv-x="791" 
d="M326 -14q-123 0 -192.5 79t-69.5 227v408h198v-402q0 -76 34.5 -112t90.5 -36q57 0 96.5 38t39.5 120v392h198v-700h-192v178l35 -36q-32 -76 -92.5 -116t-145.5 -40zM608 580v120h34q24 0 40.5 17.5t16.5 45.5q0 17 -5.5 32.5t-14.5 25.5l110 39q16 -21 25.5 -47
t9.5 -58q0 -83 -50 -129t-139 -46h-27zM293 757l134 152h190l-188 -152h-136z" />
    <glyph glyph-name="uni1EF0.ss01" horiz-adv-x="791" 
d="M326 -14q-123 0 -192.5 79t-69.5 227v408h198v-402q0 -76 34.5 -112t90.5 -36q57 0 96.5 38t39.5 120v392h198v-700h-192v178l35 -36q-32 -76 -92.5 -116t-145.5 -40zM608 580v120h34q24 0 40.5 17.5t16.5 45.5q0 17 -5.5 32.5t-14.5 25.5l110 39q16 -21 25.5 -47
t9.5 -58q0 -83 -50 -129t-139 -46h-27zM391 -218q-33 0 -56 21t-23 56t23 57t56 22t56 -22t23 -57t-23 -56t-56 -21z" />
    <glyph glyph-name="uni1EEA.ss01" horiz-adv-x="791" 
d="M326 -14q-123 0 -192.5 79t-69.5 227v408h198v-402q0 -76 34.5 -112t90.5 -36q57 0 96.5 38t39.5 120v392h198v-700h-192v178l35 -36q-32 -76 -92.5 -116t-145.5 -40zM608 580v120h34q24 0 40.5 17.5t16.5 45.5q0 17 -5.5 32.5t-14.5 25.5l110 39q16 -21 25.5 -47
t9.5 -58q0 -83 -50 -129t-139 -46h-27zM353 757l-188 152h190l134 -152h-136z" />
    <glyph glyph-name="uni1EEC.ss01" horiz-adv-x="791" 
d="M326 -14q-123 0 -192.5 79t-69.5 227v408h198v-402q0 -76 34.5 -112t90.5 -36q57 0 96.5 38t39.5 120v392h198v-700h-192v178l35 -36q-32 -76 -92.5 -116t-145.5 -40zM608 580v120h34q24 0 40.5 17.5t16.5 45.5q0 17 -5.5 32.5t-14.5 25.5l110 39q16 -21 25.5 -47
t9.5 -58q0 -83 -50 -129t-139 -46h-27zM427 747l-58 58q29 14 39 28.5t10 29.5q0 19 -12.5 29.5t-32.5 10.5q-29 0 -58 -20l-39 74q24 18 55 27.5t63 9.5q58 0 94.5 -32t36.5 -83q0 -46 -25 -78t-73 -54z" />
    <glyph glyph-name="uni1EEE.ss01" horiz-adv-x="791" 
d="M326 -14q-123 0 -192.5 79t-69.5 227v408h198v-402q0 -76 34.5 -112t90.5 -36q57 0 96.5 38t39.5 120v392h198v-700h-192v178l35 -36q-32 -76 -92.5 -116t-145.5 -40zM608 580v120h34q24 0 40.5 17.5t16.5 45.5q0 17 -5.5 32.5t-14.5 25.5l110 39q16 -21 25.5 -47
t9.5 -58q0 -83 -50 -129t-139 -46h-27zM469 750q-27 0 -47.5 9.5t-37.5 21.5t-31 21.5t-28 9.5q-20 0 -32 -14t-14 -39h-93q2 73 35.5 116t91.5 43q27 0 48 -9t37.5 -21.5t31 -21.5t27.5 -9q20 0 32.5 13.5t13.5 36.5h93q-1 -70 -35 -113.5t-92 -43.5z" />
    <glyph glyph-name="Uhungarumlaut.ss01" horiz-adv-x="791" 
d="M326 -14q-123 0 -192.5 79t-69.5 227v408h198v-402q0 -76 34.5 -112t90.5 -36q57 0 96.5 38t39.5 120v392h198v-700h-192v178l35 -36q-32 -76 -92.5 -116t-145.5 -40zM434 757l62 152h170l-100 -152h-132zM216 757l63 152h170l-101 -152h-132z" />
    <glyph glyph-name="uni0216.ss01" horiz-adv-x="791" 
d="M326 -14q-123 0 -192.5 79t-69.5 227v408h198v-402q0 -76 34.5 -112t90.5 -36q57 0 96.5 38t39.5 120v392h198v-700h-192v178l35 -36q-32 -76 -92.5 -116t-145.5 -40zM195 757q3 75 57.5 118t138.5 43t138.5 -43t57.5 -118h-116q-1 30 -24 48t-56 18t-55.5 -18t-24.5 -48
h-116z" />
    <glyph glyph-name="Umacron.ss01" horiz-adv-x="791" 
d="M326 -14q-123 0 -192.5 79t-69.5 227v408h198v-402q0 -76 34.5 -112t90.5 -36q57 0 96.5 38t39.5 120v392h198v-700h-192v178l35 -36q-32 -76 -92.5 -116t-145.5 -40zM194 782v102h394v-102h-394z" />
    <glyph glyph-name="uni1E7A.ss01" horiz-adv-x="791" 
d="M326 -14q-123 0 -192.5 79t-69.5 227v408h198v-402q0 -76 34.5 -112t90.5 -36q57 0 96.5 38t39.5 120v392h198v-700h-192v178l35 -36q-32 -76 -92.5 -116t-145.5 -40zM194 769v98h394v-98h-394zM493 928q-32 0 -53.5 20.5t-21.5 53.5t21.5 54t53.5 21t53.5 -21t21.5 -54
t-21.5 -53.5t-53.5 -20.5zM289 928q-31 0 -53 20.5t-22 53.5t22 54t53 21q32 0 54 -21t22 -54t-22 -53.5t-54 -20.5z" />
    <glyph glyph-name="Uogonek.ss01" horiz-adv-x="791" 
d="M326 -14q-123 0 -192.5 79t-69.5 227v408h198v-402q0 -76 34.5 -112t90.5 -36q57 0 96.5 38t39.5 120v392h198v-700h-192v178l35 -36q-32 -76 -92.5 -116t-145.5 -40zM639 -236q-70 0 -109 32.5t-39 84.5q0 35 18 65t53.5 55.5t88.5 43.5l70 -45q-42 -19 -67.5 -36
t-36.5 -33t-11 -33q0 -19 14 -31.5t41 -12.5q17 0 33 4.5t27 10.5l25 -82q-19 -10 -48 -16.5t-59 -6.5z" />
    <glyph glyph-name="Uring.ss01" horiz-adv-x="791" 
d="M326 -14q-123 0 -192.5 79t-69.5 227v408h198v-402q0 -76 34.5 -112t90.5 -36q57 0 96.5 38t39.5 120v392h198v-700h-192v178l35 -36q-32 -76 -92.5 -116t-145.5 -40zM391 749q-37 0 -67 17t-47.5 46t-17.5 64q0 36 17.5 64.5t47.5 46t67 17.5q38 0 67.5 -17.5t47 -46
t17.5 -64.5q0 -35 -17.5 -64t-47.5 -46t-67 -17zM391 819q25 0 41 16t16 41t-16.5 41.5t-40.5 16.5t-40.5 -16t-16.5 -42q0 -25 16.5 -41t40.5 -16z" />
    <glyph glyph-name="Utilde.ss01" horiz-adv-x="791" 
d="M326 -14q-123 0 -192.5 79t-69.5 227v408h198v-402q0 -76 34.5 -112t90.5 -36q57 0 96.5 38t39.5 120v392h198v-700h-192v178l35 -36q-32 -76 -92.5 -116t-145.5 -40zM469 750q-27 0 -47.5 9.5t-37.5 21.5t-31 21.5t-28 9.5q-20 0 -32 -14t-14 -39h-93q2 73 35.5 116
t91.5 43q27 0 48 -9t37.5 -21.5t31 -21.5t27.5 -9q20 0 32.5 13.5t13.5 36.5h93q-1 -70 -35 -113.5t-92 -43.5z" />
    <glyph glyph-name="uni1E78.ss01" horiz-adv-x="791" 
d="M326 -14q-123 0 -192.5 79t-69.5 227v408h198v-402q0 -76 34.5 -112t90.5 -36q57 0 96.5 38t39.5 120v392h198v-700h-192v178l35 -36q-32 -76 -92.5 -116t-145.5 -40zM466 751q-35 0 -60 13t-44 25.5t-34 12.5q-19 0 -30 -12t-13 -31h-95q1 65 34.5 100.5t92.5 35.5
q35 0 60 -12.5t44 -25.5t35 -13q20 0 31.5 12.5t12.5 30.5h92q-1 -63 -33 -99.5t-93 -36.5zM296 929l106 125h186l-161 -125h-131z" />
    <glyph glyph-name="W.ss01" horiz-adv-x="1212" 
d="M387 -14q-152 0 -237.5 78.5t-85.5 226.5v409h198v-403q0 -76 31 -111.5t91 -35.5q61 0 91.5 35.5t30.5 111.5v403h198v-403q0 -76 31.5 -111.5t92.5 -35.5q60 0 90.5 35.5t30.5 111.5v403h198v-409q0 -148 -85 -226.5t-238 -78.5q-90 0 -154.5 31t-99.5 83h71
q-35 -52 -99 -83t-155 -31z" />
    <glyph glyph-name="Wacute.ss01" horiz-adv-x="1212" 
d="M387 -14q-152 0 -237.5 78.5t-85.5 226.5v409h198v-403q0 -76 31 -111.5t91 -35.5q61 0 91.5 35.5t30.5 111.5v403h198v-403q0 -76 31.5 -111.5t92.5 -35.5q60 0 90.5 35.5t30.5 111.5v403h198v-409q0 -148 -85 -226.5t-238 -78.5q-90 0 -154.5 31t-99.5 83h71
q-35 -52 -99 -83t-155 -31zM507 757l134 152h190l-188 -152h-136z" />
    <glyph glyph-name="Wcircumflex.ss01" horiz-adv-x="1212" 
d="M387 -14q-152 0 -237.5 78.5t-85.5 226.5v409h198v-403q0 -76 31 -111.5t91 -35.5q61 0 91.5 35.5t30.5 111.5v403h198v-403q0 -76 31.5 -111.5t92.5 -35.5q60 0 90.5 35.5t30.5 111.5v403h198v-409q0 -148 -85 -226.5t-238 -78.5q-90 0 -154.5 31t-99.5 83h71
q-35 -52 -99 -83t-155 -31zM393 757l130 152h164l130 -152h-126l-141 125h110l-141 -125h-126z" />
    <glyph glyph-name="Wdieresis.ss01" horiz-adv-x="1212" 
d="M387 -14q-152 0 -237.5 78.5t-85.5 226.5v409h198v-403q0 -76 31 -111.5t91 -35.5q61 0 91.5 35.5t30.5 111.5v403h198v-403q0 -76 31.5 -111.5t92.5 -35.5q60 0 90.5 35.5t30.5 111.5v403h198v-409q0 -148 -85 -226.5t-238 -78.5q-90 0 -154.5 31t-99.5 83h71
q-35 -52 -99 -83t-155 -31zM711 756q-33 0 -56 21.5t-23 56.5t23 57t56 22t56 -22t23 -57t-23 -56.5t-56 -21.5zM499 756q-33 0 -56 21.5t-23 56.5t23 57t56 22t56 -22t23 -57t-23 -56.5t-56 -21.5z" />
    <glyph glyph-name="Wgrave.ss01" horiz-adv-x="1212" 
d="M387 -14q-152 0 -237.5 78.5t-85.5 226.5v409h198v-403q0 -76 31 -111.5t91 -35.5q61 0 91.5 35.5t30.5 111.5v403h198v-403q0 -76 31.5 -111.5t92.5 -35.5q60 0 90.5 35.5t30.5 111.5v403h198v-409q0 -148 -85 -226.5t-238 -78.5q-90 0 -154.5 31t-99.5 83h71
q-35 -52 -99 -83t-155 -31zM567 757l-188 152h190l134 -152h-136z" />
    <glyph glyph-name="Y.ss01" horiz-adv-x="784" 
d="M375 -109q-94 0 -169.5 24t-128.5 66l74 143q49 -35 104 -53t112 -18q81 0 118 39t37 122v130l38 -36q-32 -71 -90 -107t-137 -36q-132 0 -203 75t-71 217v243h198v-230q0 -71 33 -106.5t94 -35.5q59 0 98.5 35t39.5 117v220h198v-475q0 -108 -42 -182.5t-120 -113
t-183 -38.5z" />
    <glyph glyph-name="Yacute.ss01" horiz-adv-x="784" 
d="M375 -109q-94 0 -169.5 24t-128.5 66l74 143q49 -35 104 -53t112 -18q81 0 118 39t37 122v130l38 -36q-32 -71 -90 -107t-137 -36q-132 0 -203 75t-71 217v243h198v-230q0 -71 33 -106.5t94 -35.5q59 0 98.5 35t39.5 117v220h198v-475q0 -108 -42 -182.5t-120 -113
t-183 -38.5zM292 757l134 152h190l-188 -152h-136z" />
    <glyph glyph-name="Ycircumflex.ss01" horiz-adv-x="784" 
d="M375 -109q-94 0 -169.5 24t-128.5 66l74 143q49 -35 104 -53t112 -18q81 0 118 39t37 122v130l38 -36q-32 -71 -90 -107t-137 -36q-132 0 -203 75t-71 217v243h198v-230q0 -71 33 -106.5t94 -35.5q59 0 98.5 35t39.5 117v220h198v-475q0 -108 -42 -182.5t-120 -113
t-183 -38.5zM178 757l130 152h164l130 -152h-126l-141 125h110l-141 -125h-126z" />
    <glyph glyph-name="Ydieresis.ss01" horiz-adv-x="784" 
d="M375 -109q-94 0 -169.5 24t-128.5 66l74 143q49 -35 104 -53t112 -18q81 0 118 39t37 122v130l38 -36q-32 -71 -90 -107t-137 -36q-132 0 -203 75t-71 217v243h198v-230q0 -71 33 -106.5t94 -35.5q59 0 98.5 35t39.5 117v220h198v-475q0 -108 -42 -182.5t-120 -113
t-183 -38.5zM496 756q-33 0 -56 21.5t-23 56.5t23 57t56 22t56 -22t23 -57t-23 -56.5t-56 -21.5zM284 756q-33 0 -56 21.5t-23 56.5t23 57t56 22t56 -22t23 -57t-23 -56.5t-56 -21.5z" />
    <glyph glyph-name="uni1E8E.ss01" horiz-adv-x="784" 
d="M375 -109q-94 0 -169.5 24t-128.5 66l74 143q49 -35 104 -53t112 -18q81 0 118 39t37 122v130l38 -36q-32 -71 -90 -107t-137 -36q-132 0 -203 75t-71 217v243h198v-230q0 -71 33 -106.5t94 -35.5q59 0 98.5 35t39.5 117v220h198v-475q0 -108 -42 -182.5t-120 -113
t-183 -38.5zM390 755q-43 0 -71 27.5t-28 71.5q0 43 28 70.5t71 27.5t71 -27.5t28 -70.5q0 -44 -28 -71.5t-71 -27.5z" />
    <glyph glyph-name="uni1EF4.ss01" horiz-adv-x="784" 
d="M375 -109q-94 0 -169.5 24t-128.5 66l74 143q49 -35 104 -53t112 -18q81 0 118 39t37 122v130l38 -36q-32 -71 -90 -107t-137 -36q-132 0 -203 75t-71 217v243h198v-230q0 -71 33 -106.5t94 -35.5q59 0 98.5 35t39.5 117v220h198v-475q0 -108 -42 -182.5t-120 -113
t-183 -38.5zM676 -218q-33 0 -56 21t-23 56t23 57t56 22t56 -22t23 -57t-23 -56t-56 -21z" />
    <glyph glyph-name="Ygrave.ss01" horiz-adv-x="784" 
d="M375 -109q-94 0 -169.5 24t-128.5 66l74 143q49 -35 104 -53t112 -18q81 0 118 39t37 122v130l38 -36q-32 -71 -90 -107t-137 -36q-132 0 -203 75t-71 217v243h198v-230q0 -71 33 -106.5t94 -35.5q59 0 98.5 35t39.5 117v220h198v-475q0 -108 -42 -182.5t-120 -113
t-183 -38.5zM352 757l-188 152h190l134 -152h-136z" />
    <glyph glyph-name="uni1EF6.ss01" horiz-adv-x="784" 
d="M375 -109q-94 0 -169.5 24t-128.5 66l74 143q49 -35 104 -53t112 -18q81 0 118 39t37 122v130l38 -36q-32 -71 -90 -107t-137 -36q-132 0 -203 75t-71 217v243h198v-230q0 -71 33 -106.5t94 -35.5q59 0 98.5 35t39.5 117v220h198v-475q0 -108 -42 -182.5t-120 -113
t-183 -38.5zM426 747l-58 58q29 14 39 28.5t10 29.5q0 19 -12.5 29.5t-32.5 10.5q-29 0 -58 -20l-39 74q24 18 55 27.5t63 9.5q58 0 94.5 -32t36.5 -83q0 -46 -25 -78t-73 -54z" />
    <glyph glyph-name="uni0232.ss01" horiz-adv-x="784" 
d="M375 -109q-94 0 -169.5 24t-128.5 66l74 143q49 -35 104 -53t112 -18q81 0 118 39t37 122v130l38 -36q-32 -71 -90 -107t-137 -36q-132 0 -203 75t-71 217v243h198v-230q0 -71 33 -106.5t94 -35.5q59 0 98.5 35t39.5 117v220h198v-475q0 -108 -42 -182.5t-120 -113
t-183 -38.5zM193 782v102h394v-102h-394z" />
    <glyph glyph-name="uni1EF8.ss01" horiz-adv-x="784" 
d="M375 -109q-94 0 -169.5 24t-128.5 66l74 143q49 -35 104 -53t112 -18q81 0 118 39t37 122v130l38 -36q-32 -71 -90 -107t-137 -36q-132 0 -203 75t-71 217v243h198v-230q0 -71 33 -106.5t94 -35.5q59 0 98.5 35t39.5 117v220h198v-475q0 -108 -42 -182.5t-120 -113
t-183 -38.5zM468 750q-27 0 -47.5 9.5t-37.5 21.5t-31 21.5t-28 9.5q-20 0 -32 -14t-14 -39h-93q2 73 35.5 116t91.5 43q27 0 48 -9t37.5 -21.5t31 -21.5t27.5 -9q20 0 32.5 13.5t13.5 36.5h93q-1 -70 -35 -113.5t-92 -43.5z" />
    <glyph glyph-name="Z.ss01" horiz-adv-x="689" 
d="M40 0v112l410 488l27 -53h-428v154h603v-112l-410 -488l-26 52h451v-153h-627zM93 287v140h285l50 -4h172v-139h-264l-51 3h-192z" />
    <glyph glyph-name="Zacute.ss01" horiz-adv-x="689" 
d="M40 0v112l410 488l27 -53h-428v154h603v-112l-410 -488l-26 52h451v-153h-627zM93 287v140h285l50 -4h172v-139h-264l-51 3h-192zM255 757l134 152h190l-188 -152h-136z" />
    <glyph glyph-name="Zcaron.ss01" horiz-adv-x="689" 
d="M40 0v112l410 488l27 -53h-428v154h603v-112l-410 -488l-26 52h451v-153h-627zM93 287v140h285l50 -4h172v-139h-264l-51 3h-192zM271 757l-130 152h126l141 -124h-110l141 124h126l-130 -152h-164z" />
    <glyph glyph-name="Zdotaccent.ss01" horiz-adv-x="689" 
d="M40 0v112l410 488l27 -53h-428v154h603v-112l-410 -488l-26 52h451v-153h-627zM93 287v140h285l50 -4h172v-139h-264l-51 3h-192zM353 755q-43 0 -71 27.5t-28 71.5q0 43 28 70.5t71 27.5t71 -27.5t28 -70.5q0 -44 -28 -71.5t-71 -27.5z" />
    <glyph glyph-name="uni1E92.ss01" horiz-adv-x="689" 
d="M40 0v112l410 488l27 -53h-428v154h603v-112l-410 -488l-26 52h451v-153h-627zM93 287v140h285l50 -4h172v-139h-264l-51 3h-192zM355 -218q-33 0 -56 21t-23 56t23 57t56 22t56 -22t23 -57t-23 -56t-56 -21z" />
    <glyph glyph-name="a" unicode="a" horiz-adv-x="628" 
d="M392 0v101l-13 25v186q0 45 -27.5 69.5t-87.5 24.5q-39 0 -79 -12.5t-68 -34.5l-64 129q46 30 110.5 46.5t128.5 16.5q132 0 204.5 -60.5t72.5 -189.5v-301h-177zM232 -9q-65 0 -110 22t-68.5 60t-23.5 85q0 50 25.5 86.5t78.5 56t137 19.5h128v-99h-102q-46 0 -64.5 -15
t-18.5 -40t19 -40t52 -15q31 0 56.5 15.5t37.5 47.5l26 -70q-15 -56 -58.5 -84.5t-114.5 -28.5z" />
    <glyph glyph-name="aacute" unicode="&#xe1;" horiz-adv-x="628" 
d="M392 0v101l-13 25v186q0 45 -27.5 69.5t-87.5 24.5q-39 0 -79 -12.5t-68 -34.5l-64 129q46 30 110.5 46.5t128.5 16.5q132 0 204.5 -60.5t72.5 -189.5v-301h-177zM232 -9q-65 0 -110 22t-68.5 60t-23.5 85q0 50 25.5 86.5t78.5 56t137 19.5h128v-99h-102q-46 0 -64.5 -15
t-18.5 -40t19 -40t52 -15q31 0 56.5 15.5t37.5 47.5l26 -70q-15 -56 -58.5 -84.5t-114.5 -28.5zM215 607l134 152h190l-188 -152h-136z" />
    <glyph glyph-name="abreve" unicode="&#x103;" horiz-adv-x="628" 
d="M392 0v101l-13 25v186q0 45 -27.5 69.5t-87.5 24.5q-39 0 -79 -12.5t-68 -34.5l-64 129q46 30 110.5 46.5t128.5 16.5q132 0 204.5 -60.5t72.5 -189.5v-301h-177zM232 -9q-65 0 -110 22t-68.5 60t-23.5 85q0 50 25.5 86.5t78.5 56t137 19.5h128v-99h-102q-46 0 -64.5 -15
t-18.5 -40t19 -40t52 -15q31 0 56.5 15.5t37.5 47.5l26 -70q-15 -56 -58.5 -84.5t-114.5 -28.5zM313 598q-84 0 -138.5 43t-57.5 118h116q2 -31 24.5 -48.5t55.5 -17.5t56 17.5t24 48.5h116q-3 -75 -57.5 -118t-138.5 -43z" />
    <glyph glyph-name="uni1EAF" unicode="&#x1eaf;" horiz-adv-x="628" 
d="M392 0v101l-13 25v186q0 45 -27.5 69.5t-87.5 24.5q-39 0 -79 -12.5t-68 -34.5l-64 129q46 30 110.5 46.5t128.5 16.5q132 0 204.5 -60.5t72.5 -189.5v-301h-177zM232 -9q-65 0 -110 22t-68.5 60t-23.5 85q0 50 25.5 86.5t78.5 56t137 19.5h128v-99h-102q-46 0 -64.5 -15
t-18.5 -40t19 -40t52 -15q31 0 56.5 15.5t37.5 47.5l26 -70q-15 -56 -58.5 -84.5t-114.5 -28.5zM313 598q-83 0 -137 35.5t-59 95.5h110q3 -20 26.5 -32.5t59.5 -12.5t59.5 12.5t26.5 32.5h110q-4 -60 -58.5 -95.5t-137.5 -35.5zM218 763l106 125h186l-161 -125h-131z" />
    <glyph glyph-name="uni1EB7" unicode="&#x1eb7;" horiz-adv-x="628" 
d="M392 0v101l-13 25v186q0 45 -27.5 69.5t-87.5 24.5q-39 0 -79 -12.5t-68 -34.5l-64 129q46 30 110.5 46.5t128.5 16.5q132 0 204.5 -60.5t72.5 -189.5v-301h-177zM232 -9q-65 0 -110 22t-68.5 60t-23.5 85q0 50 25.5 86.5t78.5 56t137 19.5h128v-99h-102q-46 0 -64.5 -15
t-18.5 -40t19 -40t52 -15q31 0 56.5 15.5t37.5 47.5l26 -70q-15 -56 -58.5 -84.5t-114.5 -28.5zM296 -218q-33 0 -56 21t-23 56t23 57t56 22t56 -22t23 -57t-23 -56t-56 -21zM313 598q-84 0 -138.5 43t-57.5 118h116q2 -31 24.5 -48.5t55.5 -17.5t56 17.5t24 48.5h116
q-3 -75 -57.5 -118t-138.5 -43z" />
    <glyph glyph-name="uni1EB1" unicode="&#x1eb1;" horiz-adv-x="628" 
d="M392 0v101l-13 25v186q0 45 -27.5 69.5t-87.5 24.5q-39 0 -79 -12.5t-68 -34.5l-64 129q46 30 110.5 46.5t128.5 16.5q132 0 204.5 -60.5t72.5 -189.5v-301h-177zM232 -9q-65 0 -110 22t-68.5 60t-23.5 85q0 50 25.5 86.5t78.5 56t137 19.5h128v-99h-102q-46 0 -64.5 -15
t-18.5 -40t19 -40t52 -15q31 0 56.5 15.5t37.5 47.5l26 -70q-15 -56 -58.5 -84.5t-114.5 -28.5zM313 598q-83 0 -137 35.5t-59 95.5h110q3 -20 26.5 -32.5t59.5 -12.5t59.5 12.5t26.5 32.5h110q-4 -60 -58.5 -95.5t-137.5 -35.5zM278 763l-162 125h186l106 -125h-130z" />
    <glyph glyph-name="uni1EB3" unicode="&#x1eb3;" horiz-adv-x="628" 
d="M392 0v101l-13 25v186q0 45 -27.5 69.5t-87.5 24.5q-39 0 -79 -12.5t-68 -34.5l-64 129q46 30 110.5 46.5t128.5 16.5q132 0 204.5 -60.5t72.5 -189.5v-301h-177zM232 -9q-65 0 -110 22t-68.5 60t-23.5 85q0 50 25.5 86.5t78.5 56t137 19.5h128v-99h-102q-46 0 -64.5 -15
t-18.5 -40t19 -40t52 -15q31 0 56.5 15.5t37.5 47.5l26 -70q-15 -56 -58.5 -84.5t-114.5 -28.5zM313 598q-83 0 -137 35.5t-59 95.5h110q3 -20 26.5 -32.5t59.5 -12.5t59.5 12.5t26.5 32.5h110q-4 -60 -58.5 -95.5t-137.5 -35.5zM343 733l-45 41q20 11 28 21.5t8 18.5
q0 12 -9 19.5t-23 7.5q-21 0 -45 -12l-30 54q19 12 42.5 18t48.5 6q45 0 72 -22.5t27 -60.5q0 -32 -21.5 -55.5t-52.5 -35.5z" />
    <glyph glyph-name="uni1EB5" unicode="&#x1eb5;" horiz-adv-x="628" 
d="M392 0v101l-13 25v186q0 45 -27.5 69.5t-87.5 24.5q-39 0 -79 -12.5t-68 -34.5l-64 129q46 30 110.5 46.5t128.5 16.5q132 0 204.5 -60.5t72.5 -189.5v-301h-177zM232 -9q-65 0 -110 22t-68.5 60t-23.5 85q0 50 25.5 86.5t78.5 56t137 19.5h128v-99h-102q-46 0 -64.5 -15
t-18.5 -40t19 -40t52 -15q31 0 56.5 15.5t37.5 47.5l26 -70q-15 -56 -58.5 -84.5t-114.5 -28.5zM313 598q-83 0 -137 35.5t-59 95.5h110q3 -20 26.5 -32.5t59.5 -12.5t59.5 12.5t26.5 32.5h110q-4 -60 -58.5 -95.5t-137.5 -35.5zM388 757q-35 0 -60 13t-44 25.5t-34 12.5
q-19 0 -30 -12t-13 -31h-95q1 65 34.5 100.5t92.5 35.5q35 0 60 -12.5t44 -25.5t35 -13q20 0 31.5 12.5t12.5 30.5h92q-1 -63 -33 -99.5t-93 -36.5z" />
    <glyph glyph-name="uni01CE" unicode="&#x1ce;" horiz-adv-x="628" 
d="M392 0v101l-13 25v186q0 45 -27.5 69.5t-87.5 24.5q-39 0 -79 -12.5t-68 -34.5l-64 129q46 30 110.5 46.5t128.5 16.5q132 0 204.5 -60.5t72.5 -189.5v-301h-177zM232 -9q-65 0 -110 22t-68.5 60t-23.5 85q0 50 25.5 86.5t78.5 56t137 19.5h128v-99h-102q-46 0 -64.5 -15
t-18.5 -40t19 -40t52 -15q31 0 56.5 15.5t37.5 47.5l26 -70q-15 -56 -58.5 -84.5t-114.5 -28.5zM231 607l-130 152h126l141 -124h-110l141 124h126l-130 -152h-164z" />
    <glyph glyph-name="acircumflex" unicode="&#xe2;" horiz-adv-x="628" 
d="M392 0v101l-13 25v186q0 45 -27.5 69.5t-87.5 24.5q-39 0 -79 -12.5t-68 -34.5l-64 129q46 30 110.5 46.5t128.5 16.5q132 0 204.5 -60.5t72.5 -189.5v-301h-177zM232 -9q-65 0 -110 22t-68.5 60t-23.5 85q0 50 25.5 86.5t78.5 56t137 19.5h128v-99h-102q-46 0 -64.5 -15
t-18.5 -40t19 -40t52 -15q31 0 56.5 15.5t37.5 47.5l26 -70q-15 -56 -58.5 -84.5t-114.5 -28.5zM101 607l130 152h164l130 -152h-126l-141 125h110l-141 -125h-126z" />
    <glyph glyph-name="uni1EA5" unicode="&#x1ea5;" horiz-adv-x="628" 
d="M392 0v101l-13 25v186q0 45 -27.5 69.5t-87.5 24.5q-39 0 -79 -12.5t-68 -34.5l-64 129q46 30 110.5 46.5t128.5 16.5q132 0 204.5 -60.5t72.5 -189.5v-301h-177zM232 -9q-65 0 -110 22t-68.5 60t-23.5 85q0 50 25.5 86.5t78.5 56t137 19.5h128v-99h-102q-46 0 -64.5 -15
t-18.5 -40t19 -40t52 -15q31 0 56.5 15.5t37.5 47.5l26 -70q-15 -56 -58.5 -84.5t-114.5 -28.5zM101 607l131 122h162l131 -122h-127l-137 95h104l-137 -95h-127zM445 707l106 125h186l-161 -125h-131z" />
    <glyph glyph-name="uni1EAD" unicode="&#x1ead;" horiz-adv-x="628" 
d="M392 0v101l-13 25v186q0 45 -27.5 69.5t-87.5 24.5q-39 0 -79 -12.5t-68 -34.5l-64 129q46 30 110.5 46.5t128.5 16.5q132 0 204.5 -60.5t72.5 -189.5v-301h-177zM232 -9q-65 0 -110 22t-68.5 60t-23.5 85q0 50 25.5 86.5t78.5 56t137 19.5h128v-99h-102q-46 0 -64.5 -15
t-18.5 -40t19 -40t52 -15q31 0 56.5 15.5t37.5 47.5l26 -70q-15 -56 -58.5 -84.5t-114.5 -28.5zM296 -218q-33 0 -56 21t-23 56t23 57t56 22t56 -22t23 -57t-23 -56t-56 -21zM101 607l130 152h164l130 -152h-126l-141 125h110l-141 -125h-126z" />
    <glyph glyph-name="uni1EA7" unicode="&#x1ea7;" horiz-adv-x="628" 
d="M392 0v101l-13 25v186q0 45 -27.5 69.5t-87.5 24.5q-39 0 -79 -12.5t-68 -34.5l-64 129q46 30 110.5 46.5t128.5 16.5q132 0 204.5 -60.5t72.5 -189.5v-301h-177zM232 -9q-65 0 -110 22t-68.5 60t-23.5 85q0 50 25.5 86.5t78.5 56t137 19.5h128v-99h-102q-46 0 -64.5 -15
t-18.5 -40t19 -40t52 -15q31 0 56.5 15.5t37.5 47.5l26 -70q-15 -56 -58.5 -84.5t-114.5 -28.5zM101 607l131 122h162l131 -122h-127l-137 95h104l-137 -95h-127zM505 707l-162 125h186l106 -125h-130z" />
    <glyph glyph-name="uni1EA9" unicode="&#x1ea9;" horiz-adv-x="628" 
d="M392 0v101l-13 25v186q0 45 -27.5 69.5t-87.5 24.5q-39 0 -79 -12.5t-68 -34.5l-64 129q46 30 110.5 46.5t128.5 16.5q132 0 204.5 -60.5t72.5 -189.5v-301h-177zM232 -9q-65 0 -110 22t-68.5 60t-23.5 85q0 50 25.5 86.5t78.5 56t137 19.5h128v-99h-102q-46 0 -64.5 -15
t-18.5 -40t19 -40t52 -15q31 0 56.5 15.5t37.5 47.5l26 -70q-15 -56 -58.5 -84.5t-114.5 -28.5zM101 607l131 122h162l131 -122h-127l-137 95h104l-137 -95h-127zM509 687l-45 41q20 11 28 21.5t8 18.5q0 12 -9 19.5t-23 7.5q-21 0 -45 -12l-30 54q19 12 42.5 18t48.5 6
q45 0 72 -22.5t27 -60.5q0 -32 -21.5 -55.5t-52.5 -35.5z" />
    <glyph glyph-name="uni1EAB" unicode="&#x1eab;" horiz-adv-x="628" 
d="M392 0v101l-13 25v186q0 45 -27.5 69.5t-87.5 24.5q-39 0 -79 -12.5t-68 -34.5l-64 129q46 30 110.5 46.5t128.5 16.5q132 0 204.5 -60.5t72.5 -189.5v-301h-177zM232 -9q-65 0 -110 22t-68.5 60t-23.5 85q0 50 25.5 86.5t78.5 56t137 19.5h128v-99h-102q-46 0 -64.5 -15
t-18.5 -40t19 -40t52 -15q31 0 56.5 15.5t37.5 47.5l26 -70q-15 -56 -58.5 -84.5t-114.5 -28.5zM101 607l131 122h162l131 -122h-127l-137 95h104l-137 -95h-127zM388 764q-35 0 -60 13t-44 25.5t-34 12.5q-19 0 -30 -12t-13 -31h-95q1 65 34.5 100.5t92.5 35.5
q35 0 60 -12.5t44 -25.5t35 -13q20 0 31.5 12.5t12.5 30.5h92q-1 -63 -33 -99.5t-93 -36.5z" />
    <glyph glyph-name="uni0201" unicode="&#x201;" horiz-adv-x="628" 
d="M392 0v101l-13 25v186q0 45 -27.5 69.5t-87.5 24.5q-39 0 -79 -12.5t-68 -34.5l-64 129q46 30 110.5 46.5t128.5 16.5q132 0 204.5 -60.5t72.5 -189.5v-301h-177zM232 -9q-65 0 -110 22t-68.5 60t-23.5 85q0 50 25.5 86.5t78.5 56t137 19.5h128v-99h-102q-46 0 -64.5 -15
t-18.5 -40t19 -40t52 -15q31 0 56.5 15.5t37.5 47.5l26 -70q-15 -56 -58.5 -84.5t-114.5 -28.5zM356 607l-101 152h170l63 -152h-132zM138 607l-100 152h170l62 -152h-132z" />
    <glyph glyph-name="adieresis" unicode="&#xe4;" horiz-adv-x="628" 
d="M392 0v101l-13 25v186q0 45 -27.5 69.5t-87.5 24.5q-39 0 -79 -12.5t-68 -34.5l-64 129q46 30 110.5 46.5t128.5 16.5q132 0 204.5 -60.5t72.5 -189.5v-301h-177zM232 -9q-65 0 -110 22t-68.5 60t-23.5 85q0 50 25.5 86.5t78.5 56t137 19.5h128v-99h-102q-46 0 -64.5 -15
t-18.5 -40t19 -40t52 -15q31 0 56.5 15.5t37.5 47.5l26 -70q-15 -56 -58.5 -84.5t-114.5 -28.5zM419 606q-33 0 -56 21.5t-23 56.5t23 57t56 22t56 -22t23 -57t-23 -56.5t-56 -21.5zM207 606q-33 0 -56 21.5t-23 56.5t23 57t56 22t56 -22t23 -57t-23 -56.5t-56 -21.5z" />
    <glyph glyph-name="uni1EA1" unicode="&#x1ea1;" horiz-adv-x="628" 
d="M392 0v101l-13 25v186q0 45 -27.5 69.5t-87.5 24.5q-39 0 -79 -12.5t-68 -34.5l-64 129q46 30 110.5 46.5t128.5 16.5q132 0 204.5 -60.5t72.5 -189.5v-301h-177zM232 -9q-65 0 -110 22t-68.5 60t-23.5 85q0 50 25.5 86.5t78.5 56t137 19.5h128v-99h-102q-46 0 -64.5 -15
t-18.5 -40t19 -40t52 -15q31 0 56.5 15.5t37.5 47.5l26 -70q-15 -56 -58.5 -84.5t-114.5 -28.5zM296 -218q-33 0 -56 21t-23 56t23 57t56 22t56 -22t23 -57t-23 -56t-56 -21z" />
    <glyph glyph-name="agrave" unicode="&#xe0;" horiz-adv-x="628" 
d="M392 0v101l-13 25v186q0 45 -27.5 69.5t-87.5 24.5q-39 0 -79 -12.5t-68 -34.5l-64 129q46 30 110.5 46.5t128.5 16.5q132 0 204.5 -60.5t72.5 -189.5v-301h-177zM232 -9q-65 0 -110 22t-68.5 60t-23.5 85q0 50 25.5 86.5t78.5 56t137 19.5h128v-99h-102q-46 0 -64.5 -15
t-18.5 -40t19 -40t52 -15q31 0 56.5 15.5t37.5 47.5l26 -70q-15 -56 -58.5 -84.5t-114.5 -28.5zM275 607l-188 152h190l134 -152h-136z" />
    <glyph glyph-name="uni1EA3" unicode="&#x1ea3;" horiz-adv-x="628" 
d="M392 0v101l-13 25v186q0 45 -27.5 69.5t-87.5 24.5q-39 0 -79 -12.5t-68 -34.5l-64 129q46 30 110.5 46.5t128.5 16.5q132 0 204.5 -60.5t72.5 -189.5v-301h-177zM232 -9q-65 0 -110 22t-68.5 60t-23.5 85q0 50 25.5 86.5t78.5 56t137 19.5h128v-99h-102q-46 0 -64.5 -15
t-18.5 -40t19 -40t52 -15q31 0 56.5 15.5t37.5 47.5l26 -70q-15 -56 -58.5 -84.5t-114.5 -28.5zM349 597l-58 58q29 14 39 28.5t10 29.5q0 19 -12.5 29.5t-32.5 10.5q-29 0 -58 -20l-39 74q24 18 55 27.5t63 9.5q58 0 94.5 -32t36.5 -83q0 -46 -25 -78t-73 -54z" />
    <glyph glyph-name="uni0203" unicode="&#x203;" horiz-adv-x="628" 
d="M392 0v101l-13 25v186q0 45 -27.5 69.5t-87.5 24.5q-39 0 -79 -12.5t-68 -34.5l-64 129q46 30 110.5 46.5t128.5 16.5q132 0 204.5 -60.5t72.5 -189.5v-301h-177zM232 -9q-65 0 -110 22t-68.5 60t-23.5 85q0 50 25.5 86.5t78.5 56t137 19.5h128v-99h-102q-46 0 -64.5 -15
t-18.5 -40t19 -40t52 -15q31 0 56.5 15.5t37.5 47.5l26 -70q-15 -56 -58.5 -84.5t-114.5 -28.5zM117 607q3 75 57.5 118t138.5 43t138.5 -43t57.5 -118h-116q-1 30 -24 48t-56 18t-55.5 -18t-24.5 -48h-116z" />
    <glyph glyph-name="amacron" unicode="&#x101;" horiz-adv-x="628" 
d="M392 0v101l-13 25v186q0 45 -27.5 69.5t-87.5 24.5q-39 0 -79 -12.5t-68 -34.5l-64 129q46 30 110.5 46.5t128.5 16.5q132 0 204.5 -60.5t72.5 -189.5v-301h-177zM232 -9q-65 0 -110 22t-68.5 60t-23.5 85q0 50 25.5 86.5t78.5 56t137 19.5h128v-99h-102q-46 0 -64.5 -15
t-18.5 -40t19 -40t52 -15q31 0 56.5 15.5t37.5 47.5l26 -70q-15 -56 -58.5 -84.5t-114.5 -28.5zM116 632v102h394v-102h-394z" />
    <glyph glyph-name="aogonek" unicode="&#x105;" horiz-adv-x="628" 
d="M392 0v101l-13 25v186q0 45 -27.5 69.5t-87.5 24.5q-39 0 -79 -12.5t-68 -34.5l-64 129q46 30 110.5 46.5t128.5 16.5q132 0 204.5 -60.5t72.5 -189.5v-301h-177zM232 -9q-65 0 -110 22t-68.5 60t-23.5 85q0 50 25.5 86.5t78.5 56t137 19.5h128v-99h-102q-46 0 -64.5 -15
t-18.5 -40t19 -40t52 -15q31 0 56.5 15.5t37.5 47.5l26 -70q-15 -56 -58.5 -84.5t-114.5 -28.5zM487 -236q-70 0 -109 32.5t-39 84.5q0 35 18 65t53.5 55.5t88.5 43.5l70 -45q-42 -19 -67.5 -36t-36.5 -33t-11 -33q0 -19 14 -31.5t41 -12.5q17 0 33 4.5t27 10.5l25 -82
q-19 -10 -48 -16.5t-59 -6.5z" />
    <glyph glyph-name="aring" unicode="&#xe5;" horiz-adv-x="628" 
d="M392 0v101l-13 25v186q0 45 -27.5 69.5t-87.5 24.5q-39 0 -79 -12.5t-68 -34.5l-64 129q46 30 110.5 46.5t128.5 16.5q132 0 204.5 -60.5t72.5 -189.5v-301h-177zM232 -9q-65 0 -110 22t-68.5 60t-23.5 85q0 50 25.5 86.5t78.5 56t137 19.5h128v-99h-102q-46 0 -64.5 -15
t-18.5 -40t19 -40t52 -15q31 0 56.5 15.5t37.5 47.5l26 -70q-15 -56 -58.5 -84.5t-114.5 -28.5zM313 591q-37 0 -67 17t-47.5 46t-17.5 64q0 36 17.5 64.5t47.5 46t67 17.5q38 0 67.5 -17.5t47 -46t17.5 -64.5q0 -35 -17.5 -64t-47.5 -46t-67 -17zM313 661q25 0 41 16t16 41
t-16.5 41.5t-40.5 16.5t-40.5 -16t-16.5 -42q0 -25 16.5 -41t40.5 -16z" />
    <glyph glyph-name="aringacute" unicode="&#x1fb;" horiz-adv-x="628" 
d="M392 0v101l-13 25v186q0 45 -27.5 69.5t-87.5 24.5q-39 0 -79 -12.5t-68 -34.5l-64 129q46 30 110.5 46.5t128.5 16.5q132 0 204.5 -60.5t72.5 -189.5v-301h-177zM232 -9q-65 0 -110 22t-68.5 60t-23.5 85q0 50 25.5 86.5t78.5 56t137 19.5h128v-99h-102q-46 0 -64.5 -15
t-18.5 -40t19 -40t52 -15q31 0 56.5 15.5t37.5 47.5l26 -70q-15 -56 -58.5 -84.5t-114.5 -28.5zM313 591q-37 0 -67 17t-47.5 46t-17.5 64q0 36 17.5 64.5t47.5 46t67 17.5q38 0 67.5 -17.5t47 -46t17.5 -64.5q0 -35 -17.5 -64t-47.5 -46t-67 -17zM313 661q25 0 41 16t16 41
t-16.5 41.5t-40.5 16.5t-40.5 -16t-16.5 -42q0 -25 16.5 -41t40.5 -16zM411 769l-88 28l128 133l93 -70z" />
    <glyph glyph-name="atilde" unicode="&#xe3;" horiz-adv-x="628" 
d="M392 0v101l-13 25v186q0 45 -27.5 69.5t-87.5 24.5q-39 0 -79 -12.5t-68 -34.5l-64 129q46 30 110.5 46.5t128.5 16.5q132 0 204.5 -60.5t72.5 -189.5v-301h-177zM232 -9q-65 0 -110 22t-68.5 60t-23.5 85q0 50 25.5 86.5t78.5 56t137 19.5h128v-99h-102q-46 0 -64.5 -15
t-18.5 -40t19 -40t52 -15q31 0 56.5 15.5t37.5 47.5l26 -70q-15 -56 -58.5 -84.5t-114.5 -28.5zM391 600q-27 0 -47.5 9.5t-37.5 21.5t-31 21.5t-28 9.5q-20 0 -32 -14t-14 -39h-93q2 73 35.5 116t91.5 43q27 0 48 -9t37.5 -21.5t31 -21.5t27.5 -9q20 0 32.5 13.5t13.5 36.5
h93q-1 -70 -35 -113.5t-92 -43.5z" />
    <glyph glyph-name="ae" unicode="&#xe6;" horiz-adv-x="999" 
d="M266 -9q-110 0 -173 48t-63 125q0 47 25.5 82.5t78.5 55.5t137 20h124v-100h-98q-46 0 -64.5 -15t-18.5 -39q0 -26 19 -41.5t54 -15.5q44 0 68 24.5t24 64.5v112q0 44 -27.5 69t-86.5 25q-41 0 -80.5 -12.5t-67.5 -34.5l-64 129q46 30 110 46.5t128 16.5q84 0 144 -28.5
t88 -87.5l-77 1q38 54 101 84.5t137 30.5q58 0 110 -19t92 -54.5t63 -87t23 -116.5q0 -15 -0.5 -28t-2.5 -24h-417v100h283l-43 -27q0 39 -15 65.5t-40 41t-56 14.5q-30 0 -56 -14.5t-41 -41.5t-15 -66v-29q0 -40 16.5 -69t47 -44.5t73.5 -15.5q37 0 67 11.5t59 35.5
l100 -104q-40 -43 -98 -65.5t-131 -22.5q-62 0 -117 17t-99 54.5t-71 97.5h93q-19 -66 -56 -103t-85 -51.5t-102 -14.5z" />
    <glyph glyph-name="aeacute" unicode="&#x1fd;" horiz-adv-x="999" 
d="M266 -9q-110 0 -173 48t-63 125q0 47 25.5 82.5t78.5 55.5t137 20h124v-100h-98q-46 0 -64.5 -15t-18.5 -39q0 -26 19 -41.5t54 -15.5q44 0 68 24.5t24 64.5v112q0 44 -27.5 69t-86.5 25q-41 0 -80.5 -12.5t-67.5 -34.5l-64 129q46 30 110 46.5t128 16.5q84 0 144 -28.5
t88 -87.5l-77 1q38 54 101 84.5t137 30.5q58 0 110 -19t92 -54.5t63 -87t23 -116.5q0 -15 -0.5 -28t-2.5 -24h-417v100h283l-43 -27q0 39 -15 65.5t-40 41t-56 14.5q-30 0 -56 -14.5t-41 -41.5t-15 -66v-29q0 -40 16.5 -69t47 -44.5t73.5 -15.5q37 0 67 11.5t59 35.5
l100 -104q-40 -43 -98 -65.5t-131 -22.5q-62 0 -117 17t-99 54.5t-71 97.5h93q-19 -66 -56 -103t-85 -51.5t-102 -14.5zM376 607l134 152h190l-188 -152h-136z" />
    <glyph glyph-name="b" unicode="b" horiz-adv-x="695" 
d="M402 -9q-73 0 -121.5 30t-72.5 92t-24 159q0 95 25.5 157t74.5 92t118 30q74 0 134.5 -34t96 -96.5t35.5 -148.5q0 -87 -35.5 -149.5t-96 -97t-134.5 -34.5zM61 0v742h190v-291l-10 -179l1 -179v-93h-181zM362 142q32 0 57.5 15t41 44.5t15.5 70.5t-15.5 69.5t-41 43.5
t-57.5 15t-57.5 -15t-41 -43.5t-15.5 -69.5t15.5 -70.5t41 -44.5t57.5 -15z" />
    <glyph glyph-name="c" unicode="c" horiz-adv-x="603" 
d="M338 -9q-90 0 -160.5 36t-110.5 99.5t-40 145.5t40 145t110.5 98.5t160.5 35.5q92 0 159 -39t95 -110l-147 -75q-19 38 -47 55.5t-61 17.5t-60 -15t-42.5 -43.5t-15.5 -69.5q0 -42 15.5 -71t42.5 -44t60 -15t61 17.5t47 55.5l147 -75q-28 -71 -95 -110t-159 -39z" />
    <glyph glyph-name="cacute" unicode="&#x107;" horiz-adv-x="603" 
d="M338 -9q-90 0 -160.5 36t-110.5 99.5t-40 145.5t40 145t110.5 98.5t160.5 35.5q92 0 159 -39t95 -110l-147 -75q-19 38 -47 55.5t-61 17.5t-60 -15t-42.5 -43.5t-15.5 -69.5q0 -42 15.5 -71t42.5 -44t60 -15t61 17.5t47 55.5l147 -75q-28 -71 -95 -110t-159 -39zM220 607
l134 152h190l-188 -152h-136z" />
    <glyph glyph-name="ccaron" unicode="&#x10d;" horiz-adv-x="603" 
d="M338 -9q-90 0 -160.5 36t-110.5 99.5t-40 145.5t40 145t110.5 98.5t160.5 35.5q92 0 159 -39t95 -110l-147 -75q-19 38 -47 55.5t-61 17.5t-60 -15t-42.5 -43.5t-15.5 -69.5q0 -42 15.5 -71t42.5 -44t60 -15t61 17.5t47 55.5l147 -75q-28 -71 -95 -110t-159 -39zM236 607
l-130 152h126l141 -124h-110l141 124h126l-130 -152h-164z" />
    <glyph glyph-name="ccedilla" unicode="&#xe7;" horiz-adv-x="603" 
d="M338 -9q-90 0 -160.5 36t-110.5 99.5t-40 145.5t40 145t110.5 98.5t160.5 35.5q92 0 159 -39t95 -110l-147 -75q-19 38 -47 55.5t-61 17.5t-60 -15t-42.5 -43.5t-15.5 -69.5q0 -42 15.5 -71t42.5 -44t60 -15t61 17.5t47 55.5l147 -75q-28 -71 -95 -110t-159 -39z
M275 -236q-25 0 -51.5 6t-43.5 15l26 75q13 -6 28.5 -10t33.5 -4q27 0 38.5 8t11.5 20t-10.5 18.5t-34.5 6.5h-37l26 110h99l-14 -60q46 -5 66 -29t20 -52q0 -48 -43 -76t-115 -28z" />
    <glyph glyph-name="uni1E09" unicode="&#x1e09;" horiz-adv-x="603" 
d="M338 -9q-90 0 -160.5 36t-110.5 99.5t-40 145.5t40 145t110.5 98.5t160.5 35.5q92 0 159 -39t95 -110l-147 -75q-19 38 -47 55.5t-61 17.5t-60 -15t-42.5 -43.5t-15.5 -69.5q0 -42 15.5 -71t42.5 -44t60 -15t61 17.5t47 55.5l147 -75q-28 -71 -95 -110t-159 -39z
M275 -236q-25 0 -51.5 6t-43.5 15l26 75q13 -6 28.5 -10t33.5 -4q27 0 38.5 8t11.5 20t-10.5 18.5t-34.5 6.5h-37l26 110h99l-14 -60q46 -5 66 -29t20 -52q0 -48 -43 -76t-115 -28zM220 607l134 152h190l-188 -152h-136z" />
    <glyph glyph-name="ccircumflex" unicode="&#x109;" horiz-adv-x="603" 
d="M338 -9q-90 0 -160.5 36t-110.5 99.5t-40 145.5t40 145t110.5 98.5t160.5 35.5q92 0 159 -39t95 -110l-147 -75q-19 38 -47 55.5t-61 17.5t-60 -15t-42.5 -43.5t-15.5 -69.5q0 -42 15.5 -71t42.5 -44t60 -15t61 17.5t47 55.5l147 -75q-28 -71 -95 -110t-159 -39zM106 607
l130 152h164l130 -152h-126l-141 125h110l-141 -125h-126z" />
    <glyph glyph-name="cdotaccent" unicode="&#x10b;" horiz-adv-x="603" 
d="M338 -9q-90 0 -160.5 36t-110.5 99.5t-40 145.5t40 145t110.5 98.5t160.5 35.5q92 0 159 -39t95 -110l-147 -75q-19 38 -47 55.5t-61 17.5t-60 -15t-42.5 -43.5t-15.5 -69.5q0 -42 15.5 -71t42.5 -44t60 -15t61 17.5t47 55.5l147 -75q-28 -71 -95 -110t-159 -39zM318 605
q-43 0 -71 27.5t-28 71.5q0 43 28 70.5t71 27.5t71 -27.5t28 -70.5q0 -44 -28 -71.5t-71 -27.5z" />
    <glyph glyph-name="d" unicode="d" horiz-adv-x="698" 
d="M297 -9q-74 0 -134.5 34.5t-96.5 97t-36 149.5q0 86 36 148.5t96.5 96.5t134.5 34q70 0 118.5 -30t73.5 -92t25 -157q0 -97 -24 -159t-72 -92t-121 -30zM337 142q32 0 57.5 15t40.5 44.5t15 70.5t-15 69.5t-40.5 43.5t-57.5 15q-33 0 -58.5 -15t-40.5 -43.5t-15 -69.5
t15 -70.5t40.5 -44.5t58.5 -15zM456 0v93l1 179l-10 179v291h190v-742h-181z" />
    <glyph glyph-name="eth" unicode="&#xf0;" horiz-adv-x="666" 
d="M306 -14q-79 0 -142 29.5t-100 83.5t-37 126q0 68 33.5 118.5t90.5 78t126 27.5q53 0 93.5 -14.5t70 -42.5t46.5 -69l-51 -31q3 19 3.5 39.5t0.5 49.5q0 77 -24 127.5t-71 75.5t-117 25q-32 0 -65.5 -5t-62.5 -15l-20 142q37 8 75 13t83 5q124 0 214 -46t138.5 -137
t48.5 -226q0 -111 -41 -190t-115.5 -121.5t-176.5 -42.5zM321 127q31 0 54 12t36 32t13 46q0 27 -13.5 47.5t-36 32t-52.5 11.5q-45 0 -73.5 -24.5t-28.5 -66.5q0 -27 13.5 -47.5t36 -31.5t51.5 -11zM147 457l-33 85l466 174l33 -86z" />
    <glyph glyph-name="dcaron" unicode="&#x10f;" horiz-adv-x="698" 
d="M297 -9q-74 0 -134.5 34.5t-96.5 97t-36 149.5q0 86 36 148.5t96.5 96.5t134.5 34q70 0 118.5 -30t73.5 -92t25 -157q0 -97 -24 -159t-72 -92t-121 -30zM337 142q32 0 57.5 15t40.5 44.5t15 70.5t-15 69.5t-40.5 43.5t-57.5 15q-33 0 -58.5 -15t-40.5 -43.5t-15 -69.5
t15 -70.5t40.5 -44.5t58.5 -15zM456 0v93l1 179l-10 179v291h190v-742h-181zM715 582v205h137l-25 -205h-112z" />
    <glyph glyph-name="dcroat" unicode="&#x111;" horiz-adv-x="698" 
d="M297 -9q-74 0 -134.5 34.5t-96.5 97t-36 149.5q0 86 36 148.5t96.5 96.5t134.5 34q70 0 118.5 -30t73.5 -92t25 -157q0 -97 -24 -159t-72 -92t-121 -30zM337 142q32 0 57.5 15t40.5 44.5t15 70.5t-15 69.5t-40.5 43.5t-57.5 15q-33 0 -58.5 -15t-40.5 -43.5t-15 -69.5
t15 -70.5t40.5 -44.5t58.5 -15zM456 0v93l1 179l-10 179v291h190v-742h-181zM280 589v99h420v-99h-420z" />
    <glyph glyph-name="uni1E0D" unicode="&#x1e0d;" horiz-adv-x="698" 
d="M297 -9q-74 0 -134.5 34.5t-96.5 97t-36 149.5q0 86 36 148.5t96.5 96.5t134.5 34q70 0 118.5 -30t73.5 -92t25 -157q0 -97 -24 -159t-72 -92t-121 -30zM337 142q32 0 57.5 15t40.5 44.5t15 70.5t-15 69.5t-40.5 43.5t-57.5 15q-33 0 -58.5 -15t-40.5 -43.5t-15 -69.5
t15 -70.5t40.5 -44.5t58.5 -15zM456 0v93l1 179l-10 179v291h190v-742h-181zM372 -218q-33 0 -56 21t-23 56t23 57t56 22t56 -22t23 -57t-23 -56t-56 -21z" />
    <glyph glyph-name="uni1E0F" unicode="&#x1e0f;" horiz-adv-x="698" 
d="M297 -9q-74 0 -134.5 34.5t-96.5 97t-36 149.5q0 86 36 148.5t96.5 96.5t134.5 34q70 0 118.5 -30t73.5 -92t25 -157q0 -97 -24 -159t-72 -92t-121 -30zM337 142q32 0 57.5 15t40.5 44.5t15 70.5t-15 69.5t-40.5 43.5t-57.5 15q-33 0 -58.5 -15t-40.5 -43.5t-15 -69.5
t15 -70.5t40.5 -44.5t58.5 -15zM456 0v93l1 179l-10 179v291h190v-742h-181zM175 -187v102h394v-102h-394z" />
    <glyph glyph-name="uni01C6" unicode="&#x1c6;" horiz-adv-x="1245" 
d="M297 -9q-74 0 -134.5 34.5t-96.5 97t-36 149.5q0 86 36 148.5t96.5 96.5t134.5 34q70 0 118.5 -30t73.5 -92t25 -157q0 -97 -24 -159t-72 -92t-121 -30zM337 142q32 0 57.5 15t40.5 44.5t15 70.5t-15 69.5t-40.5 43.5t-57.5 15q-33 0 -58.5 -15t-40.5 -43.5t-15 -69.5
t15 -70.5t40.5 -44.5t58.5 -15zM456 0v93l1 179l-10 179v291h190v-742h-181zM720 0v112l304 350l32 -61h-329v141h483v-111l-305 -351l-32 62h347v-142h-500zM887 607l-130 152h126l141 -124h-110l141 124h126l-130 -152h-164z" />
    <glyph glyph-name="e" unicode="e" horiz-adv-x="642" 
d="M345 -9q-96 0 -167.5 36.5t-111 100t-39.5 144.5t38.5 144.5t106.5 99t153 35.5q80 0 146 -32.5t105 -95.5t39 -153q0 -10 -1 -23t-2 -24h-429v100h328l-72 -28q1 37 -13.5 64t-40 42t-59.5 15t-59.5 -15t-39.5 -42.5t-14 -64.5v-29q0 -40 16.5 -69t47.5 -44.5t74 -15.5
q40 0 68.5 11.5t56.5 35.5l100 -104q-39 -43 -96 -65.5t-135 -22.5z" />
    <glyph glyph-name="eacute" unicode="&#xe9;" horiz-adv-x="642" 
d="M345 -9q-96 0 -167.5 36.5t-111 100t-39.5 144.5t38.5 144.5t106.5 99t153 35.5q80 0 146 -32.5t105 -95.5t39 -153q0 -10 -1 -23t-2 -24h-429v100h328l-72 -28q1 37 -13.5 64t-40 42t-59.5 15t-59.5 -15t-39.5 -42.5t-14 -64.5v-29q0 -40 16.5 -69t47.5 -44.5t74 -15.5
q40 0 68.5 11.5t56.5 35.5l100 -104q-39 -43 -96 -65.5t-135 -22.5zM223 607l134 152h190l-188 -152h-136z" />
    <glyph glyph-name="ebreve" unicode="&#x115;" horiz-adv-x="642" 
d="M345 -9q-96 0 -167.5 36.5t-111 100t-39.5 144.5t38.5 144.5t106.5 99t153 35.5q80 0 146 -32.5t105 -95.5t39 -153q0 -10 -1 -23t-2 -24h-429v100h328l-72 -28q1 37 -13.5 64t-40 42t-59.5 15t-59.5 -15t-39.5 -42.5t-14 -64.5v-29q0 -40 16.5 -69t47.5 -44.5t74 -15.5
q40 0 68.5 11.5t56.5 35.5l100 -104q-39 -43 -96 -65.5t-135 -22.5zM321 598q-84 0 -138.5 43t-57.5 118h116q2 -31 24.5 -48.5t55.5 -17.5t56 17.5t24 48.5h116q-3 -75 -57.5 -118t-138.5 -43z" />
    <glyph glyph-name="ecaron" unicode="&#x11b;" horiz-adv-x="642" 
d="M345 -9q-96 0 -167.5 36.5t-111 100t-39.5 144.5t38.5 144.5t106.5 99t153 35.5q80 0 146 -32.5t105 -95.5t39 -153q0 -10 -1 -23t-2 -24h-429v100h328l-72 -28q1 37 -13.5 64t-40 42t-59.5 15t-59.5 -15t-39.5 -42.5t-14 -64.5v-29q0 -40 16.5 -69t47.5 -44.5t74 -15.5
q40 0 68.5 11.5t56.5 35.5l100 -104q-39 -43 -96 -65.5t-135 -22.5zM239 607l-130 152h126l141 -124h-110l141 124h126l-130 -152h-164z" />
    <glyph glyph-name="uni1E1D" unicode="&#x1e1d;" horiz-adv-x="642" 
d="M345 -9q-96 0 -167.5 36.5t-111 100t-39.5 144.5t38.5 144.5t106.5 99t153 35.5q80 0 146 -32.5t105 -95.5t39 -153q0 -10 -1 -23t-2 -24h-429v100h328l-72 -28q1 37 -13.5 64t-40 42t-59.5 15t-59.5 -15t-39.5 -42.5t-14 -64.5v-29q0 -40 16.5 -69t47.5 -44.5t74 -15.5
q40 0 68.5 11.5t56.5 35.5l100 -104q-39 -43 -96 -65.5t-135 -22.5zM284 -236q-25 0 -51.5 6t-43.5 15l26 75q13 -6 28.5 -10t33.5 -4q27 0 38.5 8t11.5 20t-10.5 18.5t-34.5 6.5h-37l26 110h99l-14 -60q46 -5 66 -29t20 -52q0 -48 -43 -76t-115 -28zM321 598
q-84 0 -138.5 43t-57.5 118h116q2 -31 24.5 -48.5t55.5 -17.5t56 17.5t24 48.5h116q-3 -75 -57.5 -118t-138.5 -43z" />
    <glyph glyph-name="ecircumflex" unicode="&#xea;" horiz-adv-x="642" 
d="M345 -9q-96 0 -167.5 36.5t-111 100t-39.5 144.5t38.5 144.5t106.5 99t153 35.5q80 0 146 -32.5t105 -95.5t39 -153q0 -10 -1 -23t-2 -24h-429v100h328l-72 -28q1 37 -13.5 64t-40 42t-59.5 15t-59.5 -15t-39.5 -42.5t-14 -64.5v-29q0 -40 16.5 -69t47.5 -44.5t74 -15.5
q40 0 68.5 11.5t56.5 35.5l100 -104q-39 -43 -96 -65.5t-135 -22.5zM109 607l130 152h164l130 -152h-126l-141 125h110l-141 -125h-126z" />
    <glyph glyph-name="uni1EBF" unicode="&#x1ebf;" horiz-adv-x="642" 
d="M345 -9q-96 0 -167.5 36.5t-111 100t-39.5 144.5t38.5 144.5t106.5 99t153 35.5q80 0 146 -32.5t105 -95.5t39 -153q0 -10 -1 -23t-2 -24h-429v100h328l-72 -28q1 37 -13.5 64t-40 42t-59.5 15t-59.5 -15t-39.5 -42.5t-14 -64.5v-29q0 -40 16.5 -69t47.5 -44.5t74 -15.5
q40 0 68.5 11.5t56.5 35.5l100 -104q-39 -43 -96 -65.5t-135 -22.5zM109 607l131 122h162l131 -122h-127l-137 95h104l-137 -95h-127zM453 707l106 125h186l-161 -125h-131z" />
    <glyph glyph-name="uni1EC7" unicode="&#x1ec7;" horiz-adv-x="642" 
d="M345 -9q-96 0 -167.5 36.5t-111 100t-39.5 144.5t38.5 144.5t106.5 99t153 35.5q80 0 146 -32.5t105 -95.5t39 -153q0 -10 -1 -23t-2 -24h-429v100h328l-72 -28q1 37 -13.5 64t-40 42t-59.5 15t-59.5 -15t-39.5 -42.5t-14 -64.5v-29q0 -40 16.5 -69t47.5 -44.5t74 -15.5
q40 0 68.5 11.5t56.5 35.5l100 -104q-39 -43 -96 -65.5t-135 -22.5zM321 -218q-33 0 -56 21t-23 56t23 57t56 22t56 -22t23 -57t-23 -56t-56 -21zM109 607l130 152h164l130 -152h-126l-141 125h110l-141 -125h-126z" />
    <glyph glyph-name="uni1EC1" unicode="&#x1ec1;" horiz-adv-x="642" 
d="M345 -9q-96 0 -167.5 36.5t-111 100t-39.5 144.5t38.5 144.5t106.5 99t153 35.5q80 0 146 -32.5t105 -95.5t39 -153q0 -10 -1 -23t-2 -24h-429v100h328l-72 -28q1 37 -13.5 64t-40 42t-59.5 15t-59.5 -15t-39.5 -42.5t-14 -64.5v-29q0 -40 16.5 -69t47.5 -44.5t74 -15.5
q40 0 68.5 11.5t56.5 35.5l100 -104q-39 -43 -96 -65.5t-135 -22.5zM109 607l131 122h162l131 -122h-127l-137 95h104l-137 -95h-127zM513 707l-162 125h186l106 -125h-130z" />
    <glyph glyph-name="uni1EC3" unicode="&#x1ec3;" horiz-adv-x="642" 
d="M345 -9q-96 0 -167.5 36.5t-111 100t-39.5 144.5t38.5 144.5t106.5 99t153 35.5q80 0 146 -32.5t105 -95.5t39 -153q0 -10 -1 -23t-2 -24h-429v100h328l-72 -28q1 37 -13.5 64t-40 42t-59.5 15t-59.5 -15t-39.5 -42.5t-14 -64.5v-29q0 -40 16.5 -69t47.5 -44.5t74 -15.5
q40 0 68.5 11.5t56.5 35.5l100 -104q-39 -43 -96 -65.5t-135 -22.5zM109 607l131 122h162l131 -122h-127l-137 95h104l-137 -95h-127zM517 687l-45 41q20 11 28 21.5t8 18.5q0 12 -9 19.5t-23 7.5q-21 0 -45 -12l-30 54q19 12 42.5 18t48.5 6q45 0 72 -22.5t27 -60.5
q0 -32 -21.5 -55.5t-52.5 -35.5z" />
    <glyph glyph-name="uni1EC5" unicode="&#x1ec5;" horiz-adv-x="642" 
d="M345 -9q-96 0 -167.5 36.5t-111 100t-39.5 144.5t38.5 144.5t106.5 99t153 35.5q80 0 146 -32.5t105 -95.5t39 -153q0 -10 -1 -23t-2 -24h-429v100h328l-72 -28q1 37 -13.5 64t-40 42t-59.5 15t-59.5 -15t-39.5 -42.5t-14 -64.5v-29q0 -40 16.5 -69t47.5 -44.5t74 -15.5
q40 0 68.5 11.5t56.5 35.5l100 -104q-39 -43 -96 -65.5t-135 -22.5zM109 607l131 122h162l131 -122h-127l-137 95h104l-137 -95h-127zM396 764q-35 0 -60 13t-44 25.5t-34 12.5q-19 0 -30 -12t-13 -31h-95q1 65 34.5 100.5t92.5 35.5q35 0 60 -12.5t44 -25.5t35 -13
q20 0 31.5 12.5t12.5 30.5h92q-1 -63 -33 -99.5t-93 -36.5z" />
    <glyph glyph-name="uni0205" unicode="&#x205;" horiz-adv-x="642" 
d="M345 -9q-96 0 -167.5 36.5t-111 100t-39.5 144.5t38.5 144.5t106.5 99t153 35.5q80 0 146 -32.5t105 -95.5t39 -153q0 -10 -1 -23t-2 -24h-429v100h328l-72 -28q1 37 -13.5 64t-40 42t-59.5 15t-59.5 -15t-39.5 -42.5t-14 -64.5v-29q0 -40 16.5 -69t47.5 -44.5t74 -15.5
q40 0 68.5 11.5t56.5 35.5l100 -104q-39 -43 -96 -65.5t-135 -22.5zM364 607l-101 152h170l63 -152h-132zM146 607l-100 152h170l62 -152h-132z" />
    <glyph glyph-name="edieresis" unicode="&#xeb;" horiz-adv-x="642" 
d="M345 -9q-96 0 -167.5 36.5t-111 100t-39.5 144.5t38.5 144.5t106.5 99t153 35.5q80 0 146 -32.5t105 -95.5t39 -153q0 -10 -1 -23t-2 -24h-429v100h328l-72 -28q1 37 -13.5 64t-40 42t-59.5 15t-59.5 -15t-39.5 -42.5t-14 -64.5v-29q0 -40 16.5 -69t47.5 -44.5t74 -15.5
q40 0 68.5 11.5t56.5 35.5l100 -104q-39 -43 -96 -65.5t-135 -22.5zM427 606q-33 0 -56 21.5t-23 56.5t23 57t56 22t56 -22t23 -57t-23 -56.5t-56 -21.5zM215 606q-33 0 -56 21.5t-23 56.5t23 57t56 22t56 -22t23 -57t-23 -56.5t-56 -21.5z" />
    <glyph glyph-name="edotaccent" unicode="&#x117;" horiz-adv-x="642" 
d="M345 -9q-96 0 -167.5 36.5t-111 100t-39.5 144.5t38.5 144.5t106.5 99t153 35.5q80 0 146 -32.5t105 -95.5t39 -153q0 -10 -1 -23t-2 -24h-429v100h328l-72 -28q1 37 -13.5 64t-40 42t-59.5 15t-59.5 -15t-39.5 -42.5t-14 -64.5v-29q0 -40 16.5 -69t47.5 -44.5t74 -15.5
q40 0 68.5 11.5t56.5 35.5l100 -104q-39 -43 -96 -65.5t-135 -22.5zM321 605q-43 0 -71 27.5t-28 71.5q0 43 28 70.5t71 27.5t71 -27.5t28 -70.5q0 -44 -28 -71.5t-71 -27.5z" />
    <glyph glyph-name="uni1EB9" unicode="&#x1eb9;" horiz-adv-x="642" 
d="M345 -9q-96 0 -167.5 36.5t-111 100t-39.5 144.5t38.5 144.5t106.5 99t153 35.5q80 0 146 -32.5t105 -95.5t39 -153q0 -10 -1 -23t-2 -24h-429v100h328l-72 -28q1 37 -13.5 64t-40 42t-59.5 15t-59.5 -15t-39.5 -42.5t-14 -64.5v-29q0 -40 16.5 -69t47.5 -44.5t74 -15.5
q40 0 68.5 11.5t56.5 35.5l100 -104q-39 -43 -96 -65.5t-135 -22.5zM321 -218q-33 0 -56 21t-23 56t23 57t56 22t56 -22t23 -57t-23 -56t-56 -21z" />
    <glyph glyph-name="egrave" unicode="&#xe8;" horiz-adv-x="642" 
d="M345 -9q-96 0 -167.5 36.5t-111 100t-39.5 144.5t38.5 144.5t106.5 99t153 35.5q80 0 146 -32.5t105 -95.5t39 -153q0 -10 -1 -23t-2 -24h-429v100h328l-72 -28q1 37 -13.5 64t-40 42t-59.5 15t-59.5 -15t-39.5 -42.5t-14 -64.5v-29q0 -40 16.5 -69t47.5 -44.5t74 -15.5
q40 0 68.5 11.5t56.5 35.5l100 -104q-39 -43 -96 -65.5t-135 -22.5zM283 607l-188 152h190l134 -152h-136z" />
    <glyph glyph-name="uni1EBB" unicode="&#x1ebb;" horiz-adv-x="642" 
d="M345 -9q-96 0 -167.5 36.5t-111 100t-39.5 144.5t38.5 144.5t106.5 99t153 35.5q80 0 146 -32.5t105 -95.5t39 -153q0 -10 -1 -23t-2 -24h-429v100h328l-72 -28q1 37 -13.5 64t-40 42t-59.5 15t-59.5 -15t-39.5 -42.5t-14 -64.5v-29q0 -40 16.5 -69t47.5 -44.5t74 -15.5
q40 0 68.5 11.5t56.5 35.5l100 -104q-39 -43 -96 -65.5t-135 -22.5zM357 597l-58 58q29 14 39 28.5t10 29.5q0 19 -12.5 29.5t-32.5 10.5q-29 0 -58 -20l-39 74q24 18 55 27.5t63 9.5q58 0 94.5 -32t36.5 -83q0 -46 -25 -78t-73 -54z" />
    <glyph glyph-name="uni0207" unicode="&#x207;" horiz-adv-x="642" 
d="M345 -9q-96 0 -167.5 36.5t-111 100t-39.5 144.5t38.5 144.5t106.5 99t153 35.5q80 0 146 -32.5t105 -95.5t39 -153q0 -10 -1 -23t-2 -24h-429v100h328l-72 -28q1 37 -13.5 64t-40 42t-59.5 15t-59.5 -15t-39.5 -42.5t-14 -64.5v-29q0 -40 16.5 -69t47.5 -44.5t74 -15.5
q40 0 68.5 11.5t56.5 35.5l100 -104q-39 -43 -96 -65.5t-135 -22.5zM125 607q3 75 57.5 118t138.5 43t138.5 -43t57.5 -118h-116q-1 30 -24 48t-56 18t-55.5 -18t-24.5 -48h-116z" />
    <glyph glyph-name="emacron" unicode="&#x113;" horiz-adv-x="642" 
d="M345 -9q-96 0 -167.5 36.5t-111 100t-39.5 144.5t38.5 144.5t106.5 99t153 35.5q80 0 146 -32.5t105 -95.5t39 -153q0 -10 -1 -23t-2 -24h-429v100h328l-72 -28q1 37 -13.5 64t-40 42t-59.5 15t-59.5 -15t-39.5 -42.5t-14 -64.5v-29q0 -40 16.5 -69t47.5 -44.5t74 -15.5
q40 0 68.5 11.5t56.5 35.5l100 -104q-39 -43 -96 -65.5t-135 -22.5zM124 632v102h394v-102h-394z" />
    <glyph glyph-name="uni1E17" unicode="&#x1e17;" horiz-adv-x="642" 
d="M345 -9q-96 0 -167.5 36.5t-111 100t-39.5 144.5t38.5 144.5t106.5 99t153 35.5q80 0 146 -32.5t105 -95.5t39 -153q0 -10 -1 -23t-2 -24h-429v100h328l-72 -28q1 37 -13.5 64t-40 42t-59.5 15t-59.5 -15t-39.5 -42.5t-14 -64.5v-29q0 -40 16.5 -69t47.5 -44.5t74 -15.5
q40 0 68.5 11.5t56.5 35.5l100 -104q-39 -43 -96 -65.5t-135 -22.5zM124 619v98h394v-98h-394zM226 779l106 125h186l-161 -125h-131z" />
    <glyph glyph-name="uni1E15" unicode="&#x1e15;" horiz-adv-x="642" 
d="M345 -9q-96 0 -167.5 36.5t-111 100t-39.5 144.5t38.5 144.5t106.5 99t153 35.5q80 0 146 -32.5t105 -95.5t39 -153q0 -10 -1 -23t-2 -24h-429v100h328l-72 -28q1 37 -13.5 64t-40 42t-59.5 15t-59.5 -15t-39.5 -42.5t-14 -64.5v-29q0 -40 16.5 -69t47.5 -44.5t74 -15.5
q40 0 68.5 11.5t56.5 35.5l100 -104q-39 -43 -96 -65.5t-135 -22.5zM124 619v98h394v-98h-394zM286 779l-162 125h186l106 -125h-130z" />
    <glyph glyph-name="eogonek" unicode="&#x119;" horiz-adv-x="642" 
d="M456 -236q-69 0 -108.5 33t-39.5 88q0 41 27.5 80t74.5 59l27 -23q-21 -5 -44 -7.5t-48 -2.5q-96 0 -167.5 36.5t-111 100t-39.5 144.5t38.5 144.5t106.5 99t153 35.5q80 0 146 -32.5t105 -95.5t39 -153q0 -10 -1 -23t-2 -24h-429v100h328l-72 -28q1 37 -13.5 64t-40 42
t-59.5 15t-59.5 -15t-39.5 -42.5t-14 -64.5v-29q0 -40 16.5 -69t47.5 -44.5t74 -15.5q40 0 68.5 11.5t56.5 35.5l100 -104q-9 -10 -19.5 -19.5t-21.5 -17.5q-46 -31 -70 -55.5t-33 -44t-9 -38.5q0 -22 15.5 -36t41.5 -14q15 0 31 4.5t27 10.5l25 -82q-18 -10 -47.5 -16.5
t-59.5 -6.5z" />
    <glyph glyph-name="uni1EBD" unicode="&#x1ebd;" horiz-adv-x="642" 
d="M345 -9q-96 0 -167.5 36.5t-111 100t-39.5 144.5t38.5 144.5t106.5 99t153 35.5q80 0 146 -32.5t105 -95.5t39 -153q0 -10 -1 -23t-2 -24h-429v100h328l-72 -28q1 37 -13.5 64t-40 42t-59.5 15t-59.5 -15t-39.5 -42.5t-14 -64.5v-29q0 -40 16.5 -69t47.5 -44.5t74 -15.5
q40 0 68.5 11.5t56.5 35.5l100 -104q-39 -43 -96 -65.5t-135 -22.5zM399 600q-27 0 -47.5 9.5t-37.5 21.5t-31 21.5t-28 9.5q-20 0 -32 -14t-14 -39h-93q2 73 35.5 116t91.5 43q27 0 48 -9t37.5 -21.5t31 -21.5t27.5 -9q20 0 32.5 13.5t13.5 36.5h93q-1 -70 -35 -113.5
t-92 -43.5z" />
    <glyph glyph-name="uni0259" unicode="&#x259;" horiz-adv-x="642" 
d="M297 551q97 0 168 -36.5t110.5 -99.5t39.5 -144q0 -82 -39 -145t-106 -99t-153 -36q-80 0 -146 33t-105 96t-39 152q0 11 1 23.5t2 23.5h429v-100h-329l73 29q0 -37 14 -64t39.5 -42.5t59.5 -15.5t59.5 15.5t39.5 43t14 63.5v30q0 40 -17 69t-47.5 44t-73.5 15
q-40 0 -68.5 -11.5t-56.5 -34.5l-100 104q39 43 96 65t135 22z" />
    <glyph glyph-name="uni0292" unicode="&#x292;" horiz-adv-x="569" 
d="M249 -203q-73 0 -144 19t-123 54l66 149q42 -30 93 -46t101 -16q52 0 82 21t30 60q0 36 -25 56.5t-82 20.5h-83v124l186 218l18 -68h-355v153h501v-124l-187 -218l-93 55h53q130 0 196.5 -60.5t66.5 -156.5q0 -63 -32 -117.5t-98 -89t-171 -34.5z" />
    <glyph glyph-name="uni01EF" unicode="&#x1ef;" horiz-adv-x="569" 
d="M249 -203q-73 0 -144 19t-123 54l66 149q42 -30 93 -46t101 -16q52 0 82 21t30 60q0 36 -25 56.5t-82 20.5h-83v124l186 218l18 -68h-355v153h501v-124l-187 -218l-93 55h53q130 0 196.5 -60.5t66.5 -156.5q0 -63 -32 -117.5t-98 -89t-171 -34.5zM176 607l-130 152h126
l141 -124h-110l141 124h126l-130 -152h-164z" />
    <glyph glyph-name="f" unicode="f" horiz-adv-x="406" 
d="M83 0v536q0 98 58.5 156.5t167.5 58.5q35 0 69 -7t57 -21l-47 -134q-12 7 -27 11.5t-30 4.5q-30 0 -46.5 -17.5t-16.5 -53.5v-39l5 -79v-416h-190zM4 380v142h393v-142h-393z" />
    <glyph glyph-name="g" unicode="g" horiz-adv-x="705" 
d="M326 -203q-78 0 -148.5 18t-120.5 53l69 133q34 -27 84.5 -42.5t98.5 -15.5q77 0 111 33.5t34 97.5v64l10 152l-1 153v99h181v-443q0 -154 -83 -228t-235 -74zM293 28q-72 0 -132.5 32.5t-97 91t-36.5 138.5t36.5 138.5t97 90.5t132.5 32q69 0 118 -27.5t74.5 -85.5
t25.5 -148t-25.5 -148t-74.5 -86t-118 -28zM338 179q34 0 60.5 14t42 39t15.5 58t-15.5 58t-42 38.5t-60.5 13.5t-61 -13.5t-42.5 -38.5t-15.5 -58t15.5 -58t42.5 -39t61 -14z" />
    <glyph glyph-name="gbreve" unicode="&#x11f;" horiz-adv-x="705" 
d="M326 -203q-78 0 -148.5 18t-120.5 53l69 133q34 -27 84.5 -42.5t98.5 -15.5q77 0 111 33.5t34 97.5v64l10 152l-1 153v99h181v-443q0 -154 -83 -228t-235 -74zM293 28q-72 0 -132.5 32.5t-97 91t-36.5 138.5t36.5 138.5t97 90.5t132.5 32q69 0 118 -27.5t74.5 -85.5
t25.5 -148t-25.5 -148t-74.5 -86t-118 -28zM338 179q34 0 60.5 14t42 39t15.5 58t-15.5 58t-42 38.5t-60.5 13.5t-61 -13.5t-42.5 -38.5t-15.5 -58t15.5 -58t42.5 -39t61 -14zM348 598q-84 0 -138.5 43t-57.5 118h116q2 -31 24.5 -48.5t55.5 -17.5t56 17.5t24 48.5h116
q-3 -75 -57.5 -118t-138.5 -43z" />
    <glyph glyph-name="gcaron" unicode="&#x1e7;" horiz-adv-x="705" 
d="M326 -203q-78 0 -148.5 18t-120.5 53l69 133q34 -27 84.5 -42.5t98.5 -15.5q77 0 111 33.5t34 97.5v64l10 152l-1 153v99h181v-443q0 -154 -83 -228t-235 -74zM293 28q-72 0 -132.5 32.5t-97 91t-36.5 138.5t36.5 138.5t97 90.5t132.5 32q69 0 118 -27.5t74.5 -85.5
t25.5 -148t-25.5 -148t-74.5 -86t-118 -28zM338 179q34 0 60.5 14t42 39t15.5 58t-15.5 58t-42 38.5t-60.5 13.5t-61 -13.5t-42.5 -38.5t-15.5 -58t15.5 -58t42.5 -39t61 -14zM266 607l-130 152h126l141 -124h-110l141 124h126l-130 -152h-164z" />
    <glyph glyph-name="gcircumflex" unicode="&#x11d;" horiz-adv-x="705" 
d="M326 -203q-78 0 -148.5 18t-120.5 53l69 133q34 -27 84.5 -42.5t98.5 -15.5q77 0 111 33.5t34 97.5v64l10 152l-1 153v99h181v-443q0 -154 -83 -228t-235 -74zM293 28q-72 0 -132.5 32.5t-97 91t-36.5 138.5t36.5 138.5t97 90.5t132.5 32q69 0 118 -27.5t74.5 -85.5
t25.5 -148t-25.5 -148t-74.5 -86t-118 -28zM338 179q34 0 60.5 14t42 39t15.5 58t-15.5 58t-42 38.5t-60.5 13.5t-61 -13.5t-42.5 -38.5t-15.5 -58t15.5 -58t42.5 -39t61 -14zM136 607l130 152h164l130 -152h-126l-141 125h110l-141 -125h-126z" />
    <glyph glyph-name="uni0123" unicode="&#x123;" horiz-adv-x="705" 
d="M326 -203q-78 0 -148.5 18t-120.5 53l69 133q34 -27 84.5 -42.5t98.5 -15.5q77 0 111 33.5t34 97.5v64l10 152l-1 153v99h181v-443q0 -154 -83 -228t-235 -74zM293 28q-72 0 -132.5 32.5t-97 91t-36.5 138.5t36.5 138.5t97 90.5t132.5 32q69 0 118 -27.5t74.5 -85.5
t25.5 -148t-25.5 -148t-74.5 -86t-118 -28zM338 179q34 0 60.5 14t42 39t15.5 58t-15.5 58t-42 38.5t-60.5 13.5t-61 -13.5t-42.5 -38.5t-15.5 -58t15.5 -58t42.5 -39t61 -14zM348 598q-47 0 -70 18.5t-23 48.5q0 13 5.5 30t20.5 42l49 88h101l-58 -157l-25 63
q46 0 69.5 -17.5t23.5 -48.5q0 -30 -23 -48.5t-70 -18.5z" />
    <glyph glyph-name="gdotaccent" unicode="&#x121;" horiz-adv-x="705" 
d="M326 -203q-78 0 -148.5 18t-120.5 53l69 133q34 -27 84.5 -42.5t98.5 -15.5q77 0 111 33.5t34 97.5v64l10 152l-1 153v99h181v-443q0 -154 -83 -228t-235 -74zM293 28q-72 0 -132.5 32.5t-97 91t-36.5 138.5t36.5 138.5t97 90.5t132.5 32q69 0 118 -27.5t74.5 -85.5
t25.5 -148t-25.5 -148t-74.5 -86t-118 -28zM338 179q34 0 60.5 14t42 39t15.5 58t-15.5 58t-42 38.5t-60.5 13.5t-61 -13.5t-42.5 -38.5t-15.5 -58t15.5 -58t42.5 -39t61 -14zM348 605q-43 0 -71 27.5t-28 71.5q0 43 28 70.5t71 27.5t71 -27.5t28 -70.5q0 -44 -28 -71.5
t-71 -27.5z" />
    <glyph glyph-name="uni1E21" unicode="&#x1e21;" horiz-adv-x="705" 
d="M326 -203q-78 0 -148.5 18t-120.5 53l69 133q34 -27 84.5 -42.5t98.5 -15.5q77 0 111 33.5t34 97.5v64l10 152l-1 153v99h181v-443q0 -154 -83 -228t-235 -74zM293 28q-72 0 -132.5 32.5t-97 91t-36.5 138.5t36.5 138.5t97 90.5t132.5 32q69 0 118 -27.5t74.5 -85.5
t25.5 -148t-25.5 -148t-74.5 -86t-118 -28zM338 179q34 0 60.5 14t42 39t15.5 58t-15.5 58t-42 38.5t-60.5 13.5t-61 -13.5t-42.5 -38.5t-15.5 -58t15.5 -58t42.5 -39t61 -14zM151 632v102h394v-102h-394z" />
    <glyph glyph-name="uni01E5" unicode="&#x1e5;" horiz-adv-x="718" 
d="M324 -203q-77 0 -148 18.5t-119 52.5l69 126q32 -26 82.5 -42t102.5 -16q73 0 108 32.5t35 98.5v64l10 159l-1 153v99h181v-443q0 -151 -81.5 -226.5t-238.5 -75.5zM268 -25v78l439 1v-78zM286 78q-78 0 -136 30.5t-90.5 84t-32.5 122.5t32.5 122t90.5 83t135 30
q68 0 118.5 -26t79 -78t28.5 -133q0 -80 -28 -132t-79 -77.5t-118 -25.5zM338 211q36 0 62.5 12.5t41 36t14.5 55.5t-14.5 55t-41 35.5t-62.5 12.5t-63 -12.5t-41.5 -35.5t-14.5 -55t14.5 -55.5t41.5 -36t63 -12.5z" />
    <glyph glyph-name="h" unicode="h" horiz-adv-x="696" 
d="M414 551q63 0 114 -25.5t80.5 -78.5t29.5 -137v-310h-190v279q0 58 -23.5 84.5t-65.5 26.5q-30 0 -55 -13.5t-39 -41.5t-14 -73v-262h-190v742h190v-354l-44 45q31 59 85 88.5t122 29.5z" />
    <glyph glyph-name="hbar" unicode="&#x127;" horiz-adv-x="696" 
d="M414 551q63 0 114 -25.5t80.5 -78.5t29.5 -137v-310h-190v279q0 58 -23.5 84.5t-65.5 26.5q-30 0 -55 -13.5t-39 -41.5t-14 -73v-262h-190v742h190v-354l-44 45q31 59 85 88.5t122 29.5zM0 589v99h420v-99h-420z" />
    <glyph glyph-name="uni1E2B" unicode="&#x1e2b;" horiz-adv-x="696" 
d="M414 551q63 0 114 -25.5t80.5 -78.5t29.5 -137v-310h-190v279q0 58 -23.5 84.5t-65.5 26.5q-30 0 -55 -13.5t-39 -41.5t-14 -73v-262h-190v742h190v-354l-44 45q31 59 85 88.5t122 29.5zM352 -221q-84 0 -138 41.5t-58 108.5h109q2 -28 26.5 -45t60.5 -17q37 0 61 17
t26 45h109q-3 -67 -57.5 -108.5t-138.5 -41.5z" />
    <glyph glyph-name="uni021F" unicode="&#x21f;" horiz-adv-x="696" 
d="M414 551q63 0 114 -25.5t80.5 -78.5t29.5 -137v-310h-190v279q0 58 -23.5 84.5t-65.5 26.5q-30 0 -55 -13.5t-39 -41.5t-14 -73v-262h-190v742h190v-354l-44 45q31 59 85 88.5t122 29.5zM74 807l-130 152h126l141 -124h-110l141 124h126l-130 -152h-164z" />
    <glyph glyph-name="hcircumflex" unicode="&#x125;" horiz-adv-x="696" 
d="M414 551q63 0 114 -25.5t80.5 -78.5t29.5 -137v-310h-190v279q0 58 -23.5 84.5t-65.5 26.5q-30 0 -55 -13.5t-39 -41.5t-14 -73v-262h-190v742h190v-354l-44 45q31 59 85 88.5t122 29.5zM-56 799l130 152h164l130 -152h-126l-141 125h110l-141 -125h-126z" />
    <glyph glyph-name="uni1E25" unicode="&#x1e25;" horiz-adv-x="696" 
d="M414 551q63 0 114 -25.5t80.5 -78.5t29.5 -137v-310h-190v279q0 58 -23.5 84.5t-65.5 26.5q-30 0 -55 -13.5t-39 -41.5t-14 -73v-262h-190v742h190v-354l-44 45q31 59 85 88.5t122 29.5zM352 -218q-33 0 -56 21t-23 56t23 57t56 22t56 -22t23 -57t-23 -56t-56 -21z" />
    <glyph glyph-name="i" unicode="i" horiz-adv-x="313" 
d="M61 0v542h190v-542h-190zM156 602q-52 0 -84 29t-32 72t32 72t84 29t84 -27.5t32 -70.5q0 -45 -31.5 -74.5t-84.5 -29.5z" />
    <glyph glyph-name="dotlessi" unicode="&#x131;" horiz-adv-x="313" 
d="M61 0v542h190v-542h-190z" />
    <glyph glyph-name="iacute" unicode="&#xed;" horiz-adv-x="313" 
d="M61 0v542h190v-542h-190zM58 607l134 152h190l-188 -152h-136z" />
    <glyph glyph-name="ibreve" unicode="&#x12d;" horiz-adv-x="313" 
d="M61 0v542h190v-542h-190zM156 598q-73 0 -121.5 43t-49.5 118h111q0 -31 16 -49.5t44 -18.5t44 18.5t16 49.5h111q-1 -75 -49 -118t-122 -43z" />
    <glyph glyph-name="icircumflex" unicode="&#xee;" horiz-adv-x="313" 
d="M61 0v542h190v-542h-190zM-31 607l107 152h160l107 -152h-125l-113 125h102l-113 -125h-125z" />
    <glyph glyph-name="uni0209" unicode="&#x209;" horiz-adv-x="313" 
d="M61 0v542h190v-542h-190zM199 607l-101 152h170l63 -152h-132zM-19 607l-100 152h170l62 -152h-132z" />
    <glyph glyph-name="idieresis" unicode="&#xef;" horiz-adv-x="313" 
d="M61 0v542h190v-542h-190zM244 606q-31 0 -52.5 21.5t-21.5 56.5t21.5 56.5t52.5 21.5t52 -21.5t21 -56.5t-21 -56.5t-52 -21.5zM69 606q-31 0 -52.5 21.5t-21.5 56.5t21.5 56.5t52.5 21.5t52 -21.5t21 -56.5t-21 -56.5t-52 -21.5z" />
    <glyph glyph-name="uni1E2F" unicode="&#x1e2f;" horiz-adv-x="313" 
d="M61 0v542h190v-542h-190zM258 606q-32 0 -53.5 20.5t-21.5 53.5t21.5 54t53.5 21t53.5 -21t21.5 -54t-21.5 -53.5t-53.5 -20.5zM54 606q-31 0 -53 20.5t-22 53.5t22 54t53 21q32 0 54 -21t22 -54t-22 -53.5t-54 -20.5zM61 779l106 125h186l-161 -125h-131z" />
    <glyph glyph-name="i.loclTRK" horiz-adv-x="313" 
d="M61 0v542h190v-542h-190zM156 605q-43 0 -71 27.5t-28 71.5q0 43 28 70.5t71 27.5t71 -27.5t28 -70.5q0 -44 -28 -71.5t-71 -27.5z" />
    <glyph glyph-name="uni1ECB" unicode="&#x1ecb;" horiz-adv-x="313" 
d="M61 0v542h190v-542h-190zM156 602q-52 0 -84 29t-32 72t32 72t84 29t84 -27.5t32 -70.5q0 -45 -31.5 -74.5t-84.5 -29.5zM156 -218q-33 0 -56 21t-23 56t23 57t56 22t56 -22t23 -57t-23 -56t-56 -21z" />
    <glyph glyph-name="igrave" unicode="&#xec;" horiz-adv-x="313" 
d="M61 0v542h190v-542h-190zM118 607l-188 152h190l134 -152h-136z" />
    <glyph glyph-name="uni1EC9" unicode="&#x1ec9;" horiz-adv-x="313" 
d="M61 0v542h190v-542h-190zM192 597l-58 58q29 14 39 28.5t10 29.5q0 19 -12.5 29.5t-32.5 10.5q-29 0 -58 -20l-39 74q24 18 55 27.5t63 9.5q58 0 94.5 -32t36.5 -83q0 -46 -25 -78t-73 -54z" />
    <glyph glyph-name="uni020B" unicode="&#x20b;" horiz-adv-x="313" 
d="M61 0v542h190v-542h-190zM-15 607q1 75 49.5 118t121.5 43q74 0 122 -43t49 -118h-111q0 30 -16 49t-44 19t-44 -19t-16 -49h-111z" />
    <glyph glyph-name="ij" unicode="&#x133;" horiz-adv-x="633" 
d="M61 0v542h190v-542h-190zM156 602q-52 0 -84 29t-32 72t32 72t84 29t84 -27.5t32 -70.5q0 -45 -31.5 -74.5t-84.5 -29.5zM351 -203q-38 0 -72.5 7.5t-59.5 20.5l48 135q26 -16 59 -16q25 0 40.5 17t15.5 54v527h190v-528q0 -99 -58 -158t-163 -59zM477 602q-52 0 -84 29
t-32 72t32 72t84 29t84 -27.5t32 -70.5q0 -45 -31.5 -74.5t-84.5 -29.5z" />
    <glyph glyph-name="imacron" unicode="&#x12b;" horiz-adv-x="313" 
d="M61 0v542h190v-542h-190zM-4 632v102h320v-102h-320z" />
    <glyph glyph-name="iogonek" unicode="&#x12f;" horiz-adv-x="313" 
d="M61 0v542h190v-542h-190zM156 602q-52 0 -84 29t-32 72t32 72t84 29t84 -27.5t32 -70.5q0 -45 -31.5 -74.5t-84.5 -29.5zM200 -236q-59 0 -95.5 32t-36.5 86q0 51 33.5 93.5t96.5 70.5l53 -46q-39 -28 -53 -52t-14 -49q0 -20 11.5 -32.5t28.5 -12.5q8 0 16.5 3t15.5 8
l23 -79q-31 -22 -79 -22z" />
    <glyph glyph-name="itilde" unicode="&#x129;" horiz-adv-x="313" 
d="M61 0v542h190v-542h-190zM225 600q-24 0 -43.5 10t-34 23t-26 22.5t-21.5 9.5q-15 0 -22.5 -14.5t-7.5 -41.5h-91q0 79 28 119t80 40q25 0 44 -9.5t33.5 -22.5t26 -22.5t21.5 -9.5q15 0 22.5 13.5t7.5 39.5h91q0 -77 -28 -117t-80 -40z" />
    <glyph glyph-name="j" unicode="j" horiz-adv-x="320" 
d="M38 -203q-38 0 -72.5 7.5t-59.5 20.5l48 135q26 -16 59 -16q25 0 40.5 17t15.5 54v527h190v-528q0 -99 -58 -158t-163 -59zM164 602q-52 0 -84 29t-32 72t32 72t84 29t84 -27.5t32 -70.5q0 -45 -31.5 -74.5t-84.5 -29.5z" />
    <glyph glyph-name="uni0237" unicode="&#x237;" horiz-adv-x="320" 
d="M38 -203q-38 0 -72.5 7.5t-59.5 20.5l48 135q26 -16 59 -16q25 0 40.5 17t15.5 54v527h190v-528q0 -99 -58 -158t-163 -59z" />
    <glyph glyph-name="jcircumflex" unicode="&#x135;" horiz-adv-x="320" 
d="M38 -203q-38 0 -72.5 7.5t-59.5 20.5l48 135q26 -16 59 -16q25 0 40.5 17t15.5 54v527h190v-528q0 -99 -58 -158t-163 -59zM-23 607l107 152h160l107 -152h-125l-113 125h102l-113 -125h-125z" />
    <glyph glyph-name="k" unicode="k" horiz-adv-x="686" 
d="M219 100l5 227l221 215h225l-245 -253l-97 -78zM61 0v742h190v-742h-190zM459 0l-166 208l118 146l278 -354h-230z" />
    <glyph glyph-name="uni01E9" unicode="&#x1e9;" horiz-adv-x="686" 
d="M219 100l5 227l221 215h225l-245 -253l-97 -78zM61 0v742h190v-742h-190zM459 0l-166 208l118 146l278 -354h-230zM74 807l-130 152h126l141 -124h-110l141 124h126l-130 -152h-164z" />
    <glyph glyph-name="uni0137" unicode="&#x137;" horiz-adv-x="686" 
d="M219 100l5 227l221 215h225l-245 -253l-97 -78zM61 0v742h190v-742h-190zM459 0l-166 208l118 146l278 -354h-230zM255 -268l44 136l21 -63q-39 0 -59 18t-20 48t21 48.5t58 18.5t58 -18.5t21 -48.5q0 -13 -4 -30.5t-17 -41.5l-37 -67h-86z" />
    <glyph glyph-name="kgreenlandic" unicode="&#x138;" horiz-adv-x="667" 
d="M219 100l5 227l221 215h225l-245 -253l-97 -78zM61 0v542h190v-542h-190zM459 0l-166 208l118 146l278 -354h-230z" />
    <glyph glyph-name="l" unicode="l" horiz-adv-x="313" 
d="M61 0v742h190v-742h-190z" />
    <glyph glyph-name="lacute" unicode="&#x13a;" horiz-adv-x="313" 
d="M61 0v742h190v-742h-190zM58 807l134 152h190l-188 -152h-136z" />
    <glyph glyph-name="lcaron" unicode="&#x13e;" horiz-adv-x="313" 
d="M61 0v742h190v-742h-190zM326 582v205h137l-25 -205h-112z" />
    <glyph glyph-name="uni013C" unicode="&#x13c;" horiz-adv-x="313" 
d="M61 0v742h190v-742h-190zM91 -268l44 136l21 -63q-39 0 -59 18t-20 48t21 48.5t58 18.5t58 -18.5t21 -48.5q0 -13 -4 -30.5t-17 -41.5l-37 -67h-86z" />
    <glyph glyph-name="ldot" unicode="&#x140;" horiz-adv-x="462" 
d="M61 0v742h190v-742h-190zM387 276q-39 0 -64.5 25.5t-25.5 64.5t25.5 64.5t64.5 25.5q40 0 65.5 -25.5t25.5 -64.5t-25.5 -64.5t-65.5 -25.5z" />
    <glyph glyph-name="uni1E37" unicode="&#x1e37;" horiz-adv-x="313" 
d="M61 0v742h190v-742h-190zM156 -218q-33 0 -56 21t-23 56t23 57t56 22t56 -22t23 -57t-23 -56t-56 -21z" />
    <glyph glyph-name="uni01C9" unicode="&#x1c9;" horiz-adv-x="633" 
d="M61 0v742h190v-742h-190zM351 -203q-38 0 -72.5 7.5t-59.5 20.5l48 135q26 -16 59 -16q25 0 40.5 17t15.5 54v527h190v-528q0 -99 -58 -158t-163 -59zM477 602q-52 0 -84 29t-32 72t32 72t84 29t84 -27.5t32 -70.5q0 -45 -31.5 -74.5t-84.5 -29.5z" />
    <glyph glyph-name="uni1E3B" unicode="&#x1e3b;" horiz-adv-x="313" 
d="M61 0v742h190v-742h-190zM-41 -187v102h394v-102h-394z" />
    <glyph glyph-name="lslash" unicode="&#x142;" horiz-adv-x="346" 
d="M78 0v742h190v-742h-190zM27 189l-64 89l357 266l63 -90z" />
    <glyph glyph-name="m" unicode="m" horiz-adv-x="1045" 
d="M767 551q63 0 112.5 -25.5t78 -78.5t28.5 -137v-310h-190v279q0 58 -22 84.5t-60 26.5q-27 0 -49 -13t-34 -39.5t-12 -68.5v-269h-190v279q0 58 -21.5 84.5t-60.5 26.5q-28 0 -49.5 -13t-34 -39.5t-12.5 -68.5v-269h-190v542h181v-151l-36 43q30 58 82 87.5t116 29.5
q73 0 128.5 -37.5t74.5 -116.5l-62 13q29 66 87.5 103.5t134.5 37.5z" />
    <glyph glyph-name="uni1E43" unicode="&#x1e43;" horiz-adv-x="1045" 
d="M767 551q63 0 112.5 -25.5t78 -78.5t28.5 -137v-310h-190v279q0 58 -22 84.5t-60 26.5q-27 0 -49 -13t-34 -39.5t-12 -68.5v-269h-190v279q0 58 -21.5 84.5t-60.5 26.5q-28 0 -49.5 -13t-34 -39.5t-12.5 -68.5v-269h-190v542h181v-151l-36 43q30 58 82 87.5t116 29.5
q73 0 128.5 -37.5t74.5 -116.5l-62 13q29 66 87.5 103.5t134.5 37.5zM522 -218q-33 0 -56 21t-23 56t23 57t56 22t56 -22t23 -57t-23 -56t-56 -21z" />
    <glyph glyph-name="n" unicode="n" horiz-adv-x="696" 
d="M414 551q63 0 114 -25.5t80.5 -78.5t29.5 -137v-310h-190v279q0 58 -23.5 84.5t-65.5 26.5q-30 0 -55 -13.5t-39 -41.5t-14 -73v-262h-190v542h181v-154l-35 45q31 59 85 88.5t122 29.5z" />
    <glyph glyph-name="nacute" unicode="&#x144;" horiz-adv-x="696" 
d="M414 551q63 0 114 -25.5t80.5 -78.5t29.5 -137v-310h-190v279q0 58 -23.5 84.5t-65.5 26.5q-30 0 -55 -13.5t-39 -41.5t-14 -73v-262h-190v542h181v-154l-35 45q31 59 85 88.5t122 29.5zM254 607l134 152h190l-188 -152h-136z" />
    <glyph glyph-name="napostrophe" unicode="&#x149;" horiz-adv-x="837" 
d="M-11 378l75 260l27 -108q-50 0 -82 29.5t-32 79.5q0 51 32.5 81.5t81.5 30.5t81 -30.5t32 -81.5q0 -14 -2 -28.5t-8.5 -34t-21.5 -52.5l-64 -146h-119zM555 551q63 0 114 -25.5t80.5 -78.5t29.5 -137v-310h-190v279q0 58 -23.5 84.5t-65.5 26.5q-30 0 -55 -13.5
t-39 -41.5t-14 -73v-262h-190v542h181v-154l-35 45q31 59 85 88.5t122 29.5z" />
    <glyph glyph-name="ncaron" unicode="&#x148;" horiz-adv-x="696" 
d="M414 551q63 0 114 -25.5t80.5 -78.5t29.5 -137v-310h-190v279q0 58 -23.5 84.5t-65.5 26.5q-30 0 -55 -13.5t-39 -41.5t-14 -73v-262h-190v542h181v-154l-35 45q31 59 85 88.5t122 29.5zM270 607l-130 152h126l141 -124h-110l141 124h126l-130 -152h-164z" />
    <glyph glyph-name="uni0146" unicode="&#x146;" horiz-adv-x="696" 
d="M414 551q63 0 114 -25.5t80.5 -78.5t29.5 -137v-310h-190v279q0 58 -23.5 84.5t-65.5 26.5q-30 0 -55 -13.5t-39 -41.5t-14 -73v-262h-190v542h181v-154l-35 45q31 59 85 88.5t122 29.5zM287 -268l44 136l21 -63q-39 0 -59 18t-20 48t21 48.5t58 18.5t58 -18.5t21 -48.5
q0 -13 -4 -30.5t-17 -41.5l-37 -67h-86z" />
    <glyph glyph-name="uni1E45" unicode="&#x1e45;" horiz-adv-x="696" 
d="M414 551q63 0 114 -25.5t80.5 -78.5t29.5 -137v-310h-190v279q0 58 -23.5 84.5t-65.5 26.5q-30 0 -55 -13.5t-39 -41.5t-14 -73v-262h-190v542h181v-154l-35 45q31 59 85 88.5t122 29.5zM352 605q-43 0 -71 27.5t-28 71.5q0 43 28 70.5t71 27.5t71 -27.5t28 -70.5
q0 -44 -28 -71.5t-71 -27.5z" />
    <glyph glyph-name="uni1E47" unicode="&#x1e47;" horiz-adv-x="696" 
d="M414 551q63 0 114 -25.5t80.5 -78.5t29.5 -137v-310h-190v279q0 58 -23.5 84.5t-65.5 26.5q-30 0 -55 -13.5t-39 -41.5t-14 -73v-262h-190v542h181v-154l-35 45q31 59 85 88.5t122 29.5zM352 -218q-33 0 -56 21t-23 56t23 57t56 22t56 -22t23 -57t-23 -56t-56 -21z" />
    <glyph glyph-name="eng" unicode="&#x14b;" horiz-adv-x="696" 
d="M414 551q63 0 114 -25.5t80.5 -78.5t29.5 -137v-296q0 -99 -58 -158t-163 -59q-38 0 -72.5 7.5t-59.5 20.5l48 135q26 -16 59 -16q25 0 40.5 17t15.5 54v264q0 58 -23.5 84.5t-65.5 26.5q-30 0 -55 -13.5t-39 -41.5t-14 -73v-262h-190v542h181v-154l-35 45q31 59 85 88.5
t122 29.5z" />
    <glyph glyph-name="uni01CC" unicode="&#x1cc;" horiz-adv-x="1016" 
d="M414 551q63 0 114 -25.5t80.5 -78.5t29.5 -137v-310h-190v279q0 58 -23.5 84.5t-65.5 26.5q-30 0 -55 -13.5t-39 -41.5t-14 -73v-262h-190v542h181v-154l-35 45q31 59 85 88.5t122 29.5zM734 -203q-38 0 -72.5 7.5t-59.5 20.5l48 135q26 -16 59 -16q25 0 40.5 17t15.5 54
v527h190v-528q0 -99 -58 -158t-163 -59zM860 602q-52 0 -84 29t-32 72t32 72t84 29t84 -27.5t32 -70.5q0 -45 -31.5 -74.5t-84.5 -29.5z" />
    <glyph glyph-name="uni1E49" unicode="&#x1e49;" horiz-adv-x="696" 
d="M414 551q63 0 114 -25.5t80.5 -78.5t29.5 -137v-310h-190v279q0 58 -23.5 84.5t-65.5 26.5q-30 0 -55 -13.5t-39 -41.5t-14 -73v-262h-190v542h181v-154l-35 45q31 59 85 88.5t122 29.5zM155 -187v102h394v-102h-394z" />
    <glyph glyph-name="ntilde" unicode="&#xf1;" horiz-adv-x="696" 
d="M414 551q63 0 114 -25.5t80.5 -78.5t29.5 -137v-310h-190v279q0 58 -23.5 84.5t-65.5 26.5q-30 0 -55 -13.5t-39 -41.5t-14 -73v-262h-190v542h181v-154l-35 45q31 59 85 88.5t122 29.5zM430 600q-27 0 -47.5 9.5t-37.5 21.5t-31 21.5t-28 9.5q-20 0 -32 -14t-14 -39h-93
q2 73 35.5 116t91.5 43q27 0 48 -9t37.5 -21.5t31 -21.5t27.5 -9q20 0 32.5 13.5t13.5 36.5h93q-1 -70 -35 -113.5t-92 -43.5z" />
    <glyph glyph-name="o" unicode="o" horiz-adv-x="666" 
d="M333 -9q-89 0 -158 36t-108.5 99.5t-39.5 145.5t39.5 145t108.5 98.5t158 35.5t158.5 -35.5t108.5 -98.5t39 -145t-39 -145.5t-108.5 -99.5t-158.5 -36zM333 142q33 0 58.5 15t40.5 44.5t15 70.5t-15 69.5t-40.5 43.5t-58.5 15q-32 0 -57.5 -15t-41 -43.5t-15.5 -69.5
t15.5 -70.5t41 -44.5t57.5 -15z" />
    <glyph glyph-name="oacute" unicode="&#xf3;" horiz-adv-x="666" 
d="M333 -9q-89 0 -158 36t-108.5 99.5t-39.5 145.5t39.5 145t108.5 98.5t158 35.5t158.5 -35.5t108.5 -98.5t39 -145t-39 -145.5t-108.5 -99.5t-158.5 -36zM333 142q33 0 58.5 15t40.5 44.5t15 70.5t-15 69.5t-40.5 43.5t-58.5 15q-32 0 -57.5 -15t-41 -43.5t-15.5 -69.5
t15.5 -70.5t41 -44.5t57.5 -15zM233 607l134 152h190l-188 -152h-136z" />
    <glyph glyph-name="obreve" unicode="&#x14f;" horiz-adv-x="666" 
d="M333 -9q-89 0 -158 36t-108.5 99.5t-39.5 145.5t39.5 145t108.5 98.5t158 35.5t158.5 -35.5t108.5 -98.5t39 -145t-39 -145.5t-108.5 -99.5t-158.5 -36zM333 142q33 0 58.5 15t40.5 44.5t15 70.5t-15 69.5t-40.5 43.5t-58.5 15q-32 0 -57.5 -15t-41 -43.5t-15.5 -69.5
t15.5 -70.5t41 -44.5t57.5 -15zM331 598q-84 0 -138.5 43t-57.5 118h116q2 -31 24.5 -48.5t55.5 -17.5t56 17.5t24 48.5h116q-3 -75 -57.5 -118t-138.5 -43z" />
    <glyph glyph-name="ocircumflex" unicode="&#xf4;" horiz-adv-x="666" 
d="M333 -9q-89 0 -158 36t-108.5 99.5t-39.5 145.5t39.5 145t108.5 98.5t158 35.5t158.5 -35.5t108.5 -98.5t39 -145t-39 -145.5t-108.5 -99.5t-158.5 -36zM333 142q33 0 58.5 15t40.5 44.5t15 70.5t-15 69.5t-40.5 43.5t-58.5 15q-32 0 -57.5 -15t-41 -43.5t-15.5 -69.5
t15.5 -70.5t41 -44.5t57.5 -15zM119 607l130 152h164l130 -152h-126l-141 125h110l-141 -125h-126z" />
    <glyph glyph-name="uni1ED1" unicode="&#x1ed1;" horiz-adv-x="666" 
d="M333 -9q-89 0 -158 36t-108.5 99.5t-39.5 145.5t39.5 145t108.5 98.5t158 35.5t158.5 -35.5t108.5 -98.5t39 -145t-39 -145.5t-108.5 -99.5t-158.5 -36zM333 142q33 0 58.5 15t40.5 44.5t15 70.5t-15 69.5t-40.5 43.5t-58.5 15q-32 0 -57.5 -15t-41 -43.5t-15.5 -69.5
t15.5 -70.5t41 -44.5t57.5 -15zM119 607l131 122h162l131 -122h-127l-137 95h104l-137 -95h-127zM463 707l106 125h186l-161 -125h-131z" />
    <glyph glyph-name="uni1ED9" unicode="&#x1ed9;" horiz-adv-x="666" 
d="M333 -9q-89 0 -158 36t-108.5 99.5t-39.5 145.5t39.5 145t108.5 98.5t158 35.5t158.5 -35.5t108.5 -98.5t39 -145t-39 -145.5t-108.5 -99.5t-158.5 -36zM333 142q33 0 58.5 15t40.5 44.5t15 70.5t-15 69.5t-40.5 43.5t-58.5 15q-32 0 -57.5 -15t-41 -43.5t-15.5 -69.5
t15.5 -70.5t41 -44.5t57.5 -15zM331 -218q-33 0 -56 21t-23 56t23 57t56 22t56 -22t23 -57t-23 -56t-56 -21zM119 607l130 152h164l130 -152h-126l-141 125h110l-141 -125h-126z" />
    <glyph glyph-name="uni1ED3" unicode="&#x1ed3;" horiz-adv-x="666" 
d="M333 -9q-89 0 -158 36t-108.5 99.5t-39.5 145.5t39.5 145t108.5 98.5t158 35.5t158.5 -35.5t108.5 -98.5t39 -145t-39 -145.5t-108.5 -99.5t-158.5 -36zM333 142q33 0 58.5 15t40.5 44.5t15 70.5t-15 69.5t-40.5 43.5t-58.5 15q-32 0 -57.5 -15t-41 -43.5t-15.5 -69.5
t15.5 -70.5t41 -44.5t57.5 -15zM119 607l131 122h162l131 -122h-127l-137 95h104l-137 -95h-127zM523 707l-162 125h186l106 -125h-130z" />
    <glyph glyph-name="uni1ED5" unicode="&#x1ed5;" horiz-adv-x="666" 
d="M333 -9q-89 0 -158 36t-108.5 99.5t-39.5 145.5t39.5 145t108.5 98.5t158 35.5t158.5 -35.5t108.5 -98.5t39 -145t-39 -145.5t-108.5 -99.5t-158.5 -36zM333 142q33 0 58.5 15t40.5 44.5t15 70.5t-15 69.5t-40.5 43.5t-58.5 15q-32 0 -57.5 -15t-41 -43.5t-15.5 -69.5
t15.5 -70.5t41 -44.5t57.5 -15zM119 607l131 122h162l131 -122h-127l-137 95h104l-137 -95h-127zM527 687l-45 41q20 11 28 21.5t8 18.5q0 12 -9 19.5t-23 7.5q-21 0 -45 -12l-30 54q19 12 42.5 18t48.5 6q45 0 72 -22.5t27 -60.5q0 -32 -21.5 -55.5t-52.5 -35.5z" />
    <glyph glyph-name="uni1ED7" unicode="&#x1ed7;" horiz-adv-x="666" 
d="M333 -9q-89 0 -158 36t-108.5 99.5t-39.5 145.5t39.5 145t108.5 98.5t158 35.5t158.5 -35.5t108.5 -98.5t39 -145t-39 -145.5t-108.5 -99.5t-158.5 -36zM333 142q33 0 58.5 15t40.5 44.5t15 70.5t-15 69.5t-40.5 43.5t-58.5 15q-32 0 -57.5 -15t-41 -43.5t-15.5 -69.5
t15.5 -70.5t41 -44.5t57.5 -15zM119 607l131 122h162l131 -122h-127l-137 95h104l-137 -95h-127zM406 764q-35 0 -60 13t-44 25.5t-34 12.5q-19 0 -30 -12t-13 -31h-95q1 65 34.5 100.5t92.5 35.5q35 0 60 -12.5t44 -25.5t35 -13q20 0 31.5 12.5t12.5 30.5h92
q-1 -63 -33 -99.5t-93 -36.5z" />
    <glyph glyph-name="uni020D" unicode="&#x20d;" horiz-adv-x="666" 
d="M333 -9q-89 0 -158 36t-108.5 99.5t-39.5 145.5t39.5 145t108.5 98.5t158 35.5t158.5 -35.5t108.5 -98.5t39 -145t-39 -145.5t-108.5 -99.5t-158.5 -36zM333 142q33 0 58.5 15t40.5 44.5t15 70.5t-15 69.5t-40.5 43.5t-58.5 15q-32 0 -57.5 -15t-41 -43.5t-15.5 -69.5
t15.5 -70.5t41 -44.5t57.5 -15zM374 607l-101 152h170l63 -152h-132zM156 607l-100 152h170l62 -152h-132z" />
    <glyph glyph-name="odieresis" unicode="&#xf6;" horiz-adv-x="666" 
d="M333 -9q-89 0 -158 36t-108.5 99.5t-39.5 145.5t39.5 145t108.5 98.5t158 35.5t158.5 -35.5t108.5 -98.5t39 -145t-39 -145.5t-108.5 -99.5t-158.5 -36zM333 142q33 0 58.5 15t40.5 44.5t15 70.5t-15 69.5t-40.5 43.5t-58.5 15q-32 0 -57.5 -15t-41 -43.5t-15.5 -69.5
t15.5 -70.5t41 -44.5t57.5 -15zM437 606q-33 0 -56 21.5t-23 56.5t23 57t56 22t56 -22t23 -57t-23 -56.5t-56 -21.5zM225 606q-33 0 -56 21.5t-23 56.5t23 57t56 22t56 -22t23 -57t-23 -56.5t-56 -21.5z" />
    <glyph glyph-name="uni022B" unicode="&#x22b;" horiz-adv-x="666" 
d="M333 -9q-89 0 -158 36t-108.5 99.5t-39.5 145.5t39.5 145t108.5 98.5t158 35.5t158.5 -35.5t108.5 -98.5t39 -145t-39 -145.5t-108.5 -99.5t-158.5 -36zM333 142q33 0 58.5 15t40.5 44.5t15 70.5t-15 69.5t-40.5 43.5t-58.5 15q-32 0 -57.5 -15t-41 -43.5t-15.5 -69.5
t15.5 -70.5t41 -44.5t57.5 -15zM433 606q-32 0 -53.5 20.5t-21.5 53.5t21.5 54t53.5 21t53.5 -21t21.5 -54t-21.5 -53.5t-53.5 -20.5zM229 606q-31 0 -53 20.5t-22 53.5t22 54t53 21q32 0 54 -21t22 -54t-22 -53.5t-54 -20.5zM134 791v98h394v-98h-394z" />
    <glyph glyph-name="uni0231" unicode="&#x231;" horiz-adv-x="666" 
d="M333 -9q-89 0 -158 36t-108.5 99.5t-39.5 145.5t39.5 145t108.5 98.5t158 35.5t158.5 -35.5t108.5 -98.5t39 -145t-39 -145.5t-108.5 -99.5t-158.5 -36zM333 142q33 0 58.5 15t40.5 44.5t15 70.5t-15 69.5t-40.5 43.5t-58.5 15q-32 0 -57.5 -15t-41 -43.5t-15.5 -69.5
t15.5 -70.5t41 -44.5t57.5 -15zM331 604q-33 0 -56 21t-23 57q0 35 23 56.5t56 21.5t56 -21.5t23 -56.5q0 -36 -23 -57t-56 -21zM134 799v98h394v-98h-394z" />
    <glyph glyph-name="uni1ECD" unicode="&#x1ecd;" horiz-adv-x="666" 
d="M333 -9q-89 0 -158 36t-108.5 99.5t-39.5 145.5t39.5 145t108.5 98.5t158 35.5t158.5 -35.5t108.5 -98.5t39 -145t-39 -145.5t-108.5 -99.5t-158.5 -36zM333 142q33 0 58.5 15t40.5 44.5t15 70.5t-15 69.5t-40.5 43.5t-58.5 15q-32 0 -57.5 -15t-41 -43.5t-15.5 -69.5
t15.5 -70.5t41 -44.5t57.5 -15zM331 -218q-33 0 -56 21t-23 56t23 57t56 22t56 -22t23 -57t-23 -56t-56 -21z" />
    <glyph glyph-name="ograve" unicode="&#xf2;" horiz-adv-x="666" 
d="M333 -9q-89 0 -158 36t-108.5 99.5t-39.5 145.5t39.5 145t108.5 98.5t158 35.5t158.5 -35.5t108.5 -98.5t39 -145t-39 -145.5t-108.5 -99.5t-158.5 -36zM333 142q33 0 58.5 15t40.5 44.5t15 70.5t-15 69.5t-40.5 43.5t-58.5 15q-32 0 -57.5 -15t-41 -43.5t-15.5 -69.5
t15.5 -70.5t41 -44.5t57.5 -15zM293 607l-188 152h190l134 -152h-136z" />
    </font>
</defs>
</svg>
